Loading...
Error

Скачать Континуум / Continuum (Полный 3-ий сезон) (Пэт Уильямс, Джон Кассар) [2014 г., фантастика, триллер, драма, WEB-DLRip] [DVO] (NewStudio) торрент без регистрации

 
Статистика раздачи
Размер:  6,98 GB   |    Скачан:  213 раз
Сидов:  1  [  0 KB/s  ]  
 
Автор Сообщение

leon030982

[] 



Континуум / Continuum



Год выпуска: 2014
Страна: США, Канада | Showcase
Жанр: фантастика, триллер, драма
Продолжительность: 13x ~ 00:44:15
Перевод: Профессиональный [двухголосый] [NewStudio]
Субтитры: нет

Режиссёры: Пэт Уильямс, Джон Кассар
В ролях: Рэйчел Николс, Виктор Уэбстер, Эрик Кнудсен, Стефен Лобо, Ричард Хэрмон, Брайан Маркинсон, Дженнифер Спенс, Джон Генри Рирдон, Роджер Р. Кросс, Лекса Дойг, Омари Ньютон, Кэйтлин Кромуэлл, Адам Рейд, Тони Амендола, Майкл Роджерс, Джанет Киддер, Заф Пару, Беатрис Саллис, Джонатан Уолкер, Майк Допуд, Уильям Б. Дэвис, Терри Чен, Терри Хаусон, Дэвид Найкл, Дэниэл Юнг, Пол Лейзенби, Брент МакЛарен, Тоня Ли Альберс, Моника Хельбиг, Филлип Митчелл, Сильвеста Стюарт, Шон Тайсон, Энтони Шим, Дэвид Стюарт


Группа террористов-фанатиков, избежавшая казни в 2077 году, перемещается в наше время вместе с преследующим их полицейским Кирой Камерон. Кира Кэмерон, уникальный специалист, и компьютерный гений по имени Садлер в недалеком прошлом будут пытаться остановить группу террористов-фанатиков: Попавшая в 2012-й год вместе с бегущими от властей экстремистами Кира устраивается обычным сотрудником в обычное отделение полиции - так начинается новый фантастический сериал, в котором герои будут перемещаться не только в пространстве, но и во времени.

ImDB / Кинопоиск
Релиз от
Качество: WEB-DLRip
Формат: AVI
Видео кодек: XviD
Аудио кодек: MP3
Видео: 720x400 (1.80:1), 23.976 fps, XviD build 64 ~1475 kbps avg, 0.21 bit/pixel
Аудио №1: Русский 48 kHz, MPEG Layer 3, 2 ch, ~128.00 kbps avg
Аудио №2: английский 48 kHz, MPEG Layer 3, 2 ch, ~128.00 kbps avg
Озвучка: Двухголосое профессиональное закадровое озвучание (NewStudio)
Перевод: Григорий Сенин
Постер: Vortex
General
Complete name : E:\INTERNET\Continuum.s03e01.WEBDLRip.NewStudio.TV.avi
Format : AVI
Format/Info : Audio Video Interleave
File size : 550 MiB
Duration : 44mn 1s
Overall bit rate : 1 747 Kbps
Writing application : VirtualDubMod 1.5.10.2 (build 2540/release)
Writing library : VirtualDubMod build 2540/release

Video
ID : 0
Format : MPEG-4 Visual
Format profile : Advanced Simple@L5
Format settings, BVOP : 2
Format settings, QPel : No
Format settings, GMC : No warppoints
Format settings, Matrix : Default (MPEG)
Codec ID : XVID
Codec ID/Hint : XviD
Duration : 44mn 1s
Bit rate : 1 477 Kbps
Width : 720 pixels
Height : 400 pixels
Display aspect ratio : 16:9
Frame rate : 23.976 fps
Color space : YUV
Chroma subsampling : 4:2:0
Bit depth : 8 bits
Scan type : Progressive
Compression mode : Lossy
Bits/(Pixel*Frame) : 0.214
Stream size : 465 MiB (85%)
Writing library : XviD 64

Audio #1
ID : 1
Format : MPEG Audio
Format version : Version 1
Format profile : Layer 3
Mode : Joint stereo
Mode extension : MS Stereo
Codec ID : 55
Codec ID/Hint : MP3
Duration : 44mn 1s
Bit rate mode : Constant
Bit rate : 128 Kbps
Channel(s) : 2 channels
Sampling rate : 48.0 KHz
Compression mode : Lossy
Stream size : 40.3 MiB (7%)
Alignment : Aligned on interleaves
Interleave, duration : 42 ms (1.00 video frame)
Interleave, preload duration : 504 ms

Audio #2
ID : 2
Format : MPEG Audio
Format version : Version 1
Format profile : Layer 3
Mode : Joint stereo
Mode extension : MS Stereo
Codec ID : 55
Codec ID/Hint : MP3
Duration : 44mn 1s
Bit rate mode : Constant
Bit rate : 128 Kbps
Channel(s) : 2 channels
Sampling rate : 48.0 KHz
Compression mode : Lossy
Stream size : 40.3 MiB (7%)
Alignment : Aligned on interleaves
Interleave, duration : 42 ms (1.00 video frame)
Interleave, preload duration : 504 ms
Writing library : LAME3.99r
Encoding settings : -m j -V 4 -q 2 -lowpass 17 -b 128
Раздача ведётся путём добавления новых серий; при каждом добавлении создаётся новый торрент. Чтобы начать докачку новой серии, пользователям необходимо сделать следующее:
(1) остановить скачивание,
(2) удалить старый торрент у себя из клиента (старые серии удалять не надо),
(3) скачать новый торрент и запустить его у себя в клиенте вместо старого, при этом указать клиенту путь в старую папку куда и должно происходить скачивание новых серий.

Ваш клиент при этом должен произвести хеширование (проверку) старой папки (если не производит сам - помогите ему сделать это), и будет докачивать только те серии которых у вас ещё нет. Старые серии при этом не удаляются, а продолжают раздаваться!

Eсли вы уже удалили старые серии, то предотвратить повторную закачку старых серий можно, отжав галочку в соответствующих местах при запуске нового торрента. По возможности, желательно не удалять старые серии как можно дольше чтобы релизёр не столько продолжал раздавать старые серии, а смог сконцентрироваться на новых.



Скачать Континуум.Continuum.(Полный.3-ий.сезон).(Пэт.Уильямс.Джон.Кассар).[2014.г.фантастика.триллер.драма.WEB-DLRip].[DVO].(NewStudio).torrent без регистрации
Золото ЗОЛОТАЯ РАЗДАЧА! СКАЧАННОЕ НЕ ЗАСЧИТЫВАЕТСЯ! Золото
Дата: Зарегистрирован   [ Тип: внутренний ] Как тут cкачать?
MAGNET ссылка
MAGNET ссылка


Скачать .torrent

19 KB

Статус: проверено DHT
Скачан: торрент - 213 раз, раздача полностью - 51 раз
Размер: 6,98 GB
Оценка:  5 (Голосов: 3)
Поблагодарили: 7
Поделиться ссылкой на эту раздачу с друзьями:
В контактеFacebookОдноклассникиTwitterLivejournalМой МирLiveinternet
 

 

leon030982

[] 

раздача обновлена!
 

leon030982

[] 

Обновлено!
 

leon030982

[] 

добавлена 5-я серия
 

leon030982

[] 

6-я серия
 

leon030982

[] 

7-я серия
 

leon030982

[] 

обновлено
 

leon030982

[] 

9-я серия
 

leon030982

[] 

обновлено
 

leon030982

[] 

обновлено
 

leon030982

[] 

добавлены финальные серии сезона
 
Показать сообщения:    


Вы не можете начинать темы
Вы не можете отвечать на сообщения
Вы не можете редактировать свои сообщения
Вы не можете удалять свои сообщения
Вы не можете голосовать в опросах
Вы не можете прикреплять файлы к сообщениям
Вы можете скачивать файлы