Loading...
Error

Скачать Балтиморская пуля / The Baltimore Bullet (Роберт Эллис Миллер /Robert Ellis Miller) [1980 г., Криминальная комедия, LDRip] 2x[AVO] (Гаврилов, Товбин) + Original торрент без регистрации

 
Статистика раздачи
Размер:  1,37 GB   |    Скачан:  220 раз
Сидов:  1  [  0 KB/s  ]  
 
Автор Сообщение

leon030982

[] 

Балтиморская пуля/ The Baltimore Bullet



Год выпуска: 1980
Страна: США
Жанр: Криминальная комедия
Продолжительность: 01:38:52
Перевод #1: Авторский (одноголосый)[Гаврилов]
Перевод #2: Авторский (одноголосый)[Товбин]
Оригинальная аудиодорожка: английский
субтитры: нет

Режиссер: Роберт Эллис Миллер /Robert Ellis Miller

В ролях: Джеймс Кобурн /James Coburn/, Омар Шариф /Omar Sharif/, Рони Блэйкли /Ronee Blakely/, Брюс Бокслайтнер /Bruce Boxleitner

Описание: Скользкий мошенник и его молодой помощник готовят подставку для профессионального игрока (Шариф) при игре в бильярд по-крупному. Весь вопрос только в том, удастся ли им остаться в живых после выигрыша. Достаточно приятная, развлекательная картина. (Иванов М.)

Качество: LDRip
Формат: AVI
Видео кодек: XviD
Аудио кодек: MP3
Видео: 720x544 (1.32:1), 25 fps, XviD build 47 ~1638 kbps avg, 0.17 bit/pixel
Аудио #1: 48 kHz, MPEG Layer 3, 2 ch, ~100.92 kbps avg[Гаврилов]
Аудио #2: 48 kHz, MPEG Layer 3, 2 ch, ~103.34 kbps avg[Товбин]
Аудио #3: 48 kHz, MPEG Layer 3, 2 ch, ~101.66 kbps avg[ENG]
General
Complete name : E:\INTERNET\Балтиморская пуля.avi
Format : AVI
Format/Info : Audio Video Interleave
File size : 1.37 GiB
Duration : 1h 38mn
Overall bit rate : 1 977 Kbps
Writing application : VirtualDubMod 1.5.4.1 (build 2178/release)
Writing library : VirtualDubMod build 2178/release

Video
ID : 0
Format : MPEG-4 Visual
Format profile : Advanced Simple@L5
Format settings, BVOP : 1
Format settings, QPel : No
Format settings, GMC : No warppoints
Format settings, Matrix : Custom
Codec ID : XVID
Codec ID/Hint : XviD
Duration : 1h 38mn
Bit rate : 1 642 Kbps
Width : 720 pixels
Height : 544 pixels
Display aspect ratio : 4:3
Frame rate : 25.000 fps
Color space : YUV
Chroma subsampling : 4:2:0
Bit depth : 8 bits
Scan type : Progressive
Compression mode : Lossy
Bits/(Pixel*Frame) : 0.168
Stream size : 1.13 GiB (83%)
Writing library : XviD 1.2.0.dev47 (UTC 2006-11-01)

Audio #1
ID : 1
Format : MPEG Audio
Format version : Version 1
Format profile : Layer 3
Mode : Joint stereo
Mode extension : MS Stereo
Codec ID : 55
Codec ID/Hint : MP3
Duration : 1h 38mn
Bit rate mode : Variable
Bit rate : 101 Kbps
Nominal bit rate : 128 Kbps
Channel(s) : 2 channels
Sampling rate : 48.0 KHz
Compression mode : Lossy
Stream size : 71.4 MiB (5%)
Alignment : Aligned on interleaves
Interleave, duration : 24 ms (0.60 video frame)
Interleave, preload duration : 536 ms
Writing library : LAME3.97
Encoding settings : -m j -V 4 -q 2 -lowpass 17 --abr 128

Audio #2
ID : 2
Format : MPEG Audio
Format version : Version 1
Format profile : Layer 3
Mode : Joint stereo
Codec ID : 55
Codec ID/Hint : MP3
Duration : 1h 38mn
Bit rate mode : Variable
Bit rate : 103 Kbps
Nominal bit rate : 128 Kbps
Channel(s) : 2 channels
Sampling rate : 48.0 KHz
Compression mode : Lossy
Stream size : 73.1 MiB (5%)
Alignment : Aligned on interleaves
Interleave, duration : 24 ms (0.60 video frame)
Interleave, preload duration : 490 ms
Writing library : LAME3.97
Encoding settings : -m j -V 4 -q 2 -lowpass 17 --abr 128

Audio #3
ID : 3
Format : MPEG Audio
Format version : Version 1
Format profile : Layer 3
Mode : Joint stereo
Mode extension : MS Stereo
Codec ID : 55
Codec ID/Hint : MP3
Duration : 1h 38mn
Bit rate mode : Variable
Bit rate : 102 Kbps
Nominal bit rate : 128 Kbps
Channel(s) : 2 channels
Sampling rate : 48.0 KHz
Compression mode : Lossy
Stream size : 71.9 MiB (5%)
Alignment : Aligned on interleaves
Interleave, duration : 24 ms (0.60 video frame)
Interleave, preload duration : 540 ms
Writing library : LAME3.97
Encoding settings : -m j -V 4 -q 2 -lowpass 17 --abr 128



Скачать Балтиморская.пуля.The.Baltimore.Bullet.(Роберт.Эллис.Миллер.Robert.Ellis.Miller).[1980.г.Криминальная.комедия.LDRip].2x[AVO].(Гаврилов.Товбин).+.Original.torrent без регистрации
Золото ЗОЛОТАЯ РАЗДАЧА! СКАЧАННОЕ НЕ ЗАСЧИТЫВАЕТСЯ! Золото
Дата: Зарегистрирован   [ Тип: внутренний ] Как тут cкачать?
MAGNET ссылка
MAGNET ссылка


Скачать .torrent

14 KB

Статус: проверено DHT
Скачан: торрент - 220 раз, раздача полностью - 15 раз
Размер: 1,37 GB
Оценка:  5 (Голосов: 1)
Поблагодарили: 2
Поделиться ссылкой на эту раздачу с друзьями:
В контактеFacebookОдноклассникиTwitterLivejournalМой МирLiveinternet
 

 
Показать сообщения:    


Вы не можете начинать темы
Вы не можете отвечать на сообщения
Вы не можете редактировать свои сообщения
Вы не можете удалять свои сообщения
Вы не можете голосовать в опросах
Вы не можете прикреплять файлы к сообщениям
Вы можете скачивать файлы