Loading...
Error

Скачать Дуэт для солиста / Duet for One (Андрей Кончаловский) [1986, драма, DVDRip] [MVO] торрент без регистрации

 
Статистика раздачи
Размер:  1,45 GB   |    Скачан:  96 раз
Сидов:  1  [  0 KB/s  ]  
 
Автор Сообщение

Marsianka

[] 

Страна: США
Жанр: драма
Год выпуска: 1986

Продолжительность: 01:43:04
Перевод: Профессиональный (многоголосый, закадровый)

Режиссер: Андрей Кончаловский

В ролях: Лиам Нисон, Джули Эндрюс (Stephanie Anderson), Алан Бейтс (David Cornwallis), Макс фон Сюдов (Dr. Louis Feldman), Руперт Эверетт (Constantine Kassanis), Маргарет Кортни (Sonia Randvich), Кэтрин Харрисон (Penny Smallwood), Зигфрит Штейнер (Leonid Lefimov), Маша Мериль (Anya), Шиван Редмонд (Totter's wife), Джанетт Ньюлинг (Mrs. Burridge), Джон Делани (Drunk)
Описание: Фильм рассказывает историю Стефани Андерсон, известной скрипачки. Она серьёзно заболела. Её окружают близкие ей люди - муж Дэвид и ученик Константин. Все хотят помочь Стефани выйти из её болезненного состояния, в том числе и её психиатр доктор Льюис Фельдман.

MPAA: R - Лицам до 17 лет обязательно присутствие взрослого
Качество: DVDRip | Sample
Контейнер: AVI
Исходник: DVD5
Видео: 688x368 (1,85:1), 25 fps, XviD MPEG-4 ~874 kbps avg, 0.138 bit/pixel
Аудио: 48 kHz, MPEG Layer 3, 2 ch, ~128.00 kbps avg

Общее
Полное имя : E:ВидеоДуэт_для_солиста_DVDRip_MVO_by_Дядя_Лёша_от Youtracker.avi
Формат : AVI
Формат/Информация : Audio Video Interleave
Размер файла : 746 Мбайт
Продолжительность : 1 ч. 43 м.
Общий поток : 1011 Кбит/сек
Программа кодирования : VirtualDubMod 1.5.10.3 | www.virtualdub-fr.org || (build 2550/release)
Библиотека кодирования : VirtualDubMod build 2550/release

Видео
Идентификатор : 0
Формат : MPEG-4 Visual
Профиль формата : Advanced Simple@L5
Параметр BVOP формата : 2
Параметр QPel формата : Нет
Параметр GMC формата : Без точки перехода
Параметр матрицы формата : Выборочная
Режим смешивания : Сжатый битовый поток
Идентификатор кодека : XVID
Идентификатор кодека/Подсказка : XviD
Продолжительность : 1 ч. 43 м.
Битрейт : 874 Кбит/сек
Ширина : 688 пикселей
Высота : 368 пикселей
Соотношение сторон : 1,85:1
Частота кадров : 25,000 кадров/сек
Цветовое пространство : YUV
Субдискретизация насыщенности : 4:2:0
Битовая глубина : 8 бит
Тип развёртки : Прогрессивная
Метод сжатия : С потерями
Бит/(Пиксели*Кадры) : 0.138
Размер потока : 644 Мбайт (86%)
Библиотека кодирования : XviD 65

Аудио
Идентификатор : 1
Формат : MPEG Audio
Версия формата : Version 1
Профиль формата : Layer 3
Идентификатор кодека : 55
Идентификатор кодека/Подсказка : MP3
Продолжительность : 1 ч. 43 м.
Вид битрейта : Постоянный
Битрейт : 128 Кбит/сек
Каналы : 2 канала
Частота : 48,0 КГц
Метод сжатия : С потерями
Размер потока : 94,4 Мбайт (13%)
Выравнивание : Соединение по промежуткам
Продолжительность промежутка : 40 мс. (1,00 видеокадр)
Время предзагрузки промежутка : 504 мс.
Библиотека кодирования : LAME3.99r
Настройки программы : -m s -V 4 -q 2 -lowpass 17 -b 128



Скачать Дуэт.для.солиста.Duet.for.One.(Андрей.Кончаловский).[1986.драма.DVDRip].[MVO].torrent без регистрации
Золото ЗОЛОТАЯ РАЗДАЧА! СКАЧАННОЕ НЕ ЗАСЧИТЫВАЕТСЯ! Золото
Дата: Зарегистрирован   [ Тип: внутренний ] Как тут cкачать?
MAGNET ссылка
MAGNET ссылка


Скачать .torrent

15 KB

Статус: проверено DHT
Скачан: торрент - 96 раз, раздача полностью - 0 раз
Размер: 1,45 GB
Оценка:  - (Голосов: 0)
Поблагодарили: 1
Поделиться ссылкой на эту раздачу с друзьями:
В контактеFacebookОдноклассникиTwitterLivejournalМой МирLiveinternet
 

 
Показать сообщения:    


Вы не можете начинать темы
Вы не можете отвечать на сообщения
Вы не можете редактировать свои сообщения
Вы не можете удалять свои сообщения
Вы не можете голосовать в опросах
Вы не можете прикреплять файлы к сообщениям
Вы можете скачивать файлы