Loading...
Error

Скачать Траффик / Наркоторговля / Путь героина / Traffik (Сезон: 1 / Серии: 1-6 из 6) (Аластер Рейд) [1989, драма, криминал, DVDRip-AVC] [VO] (Д.Есарев) + Original торрент без регистрации

 
Статистика раздачи
Размер:  7,62 GB   |    Скачан:  158 раз
Сидов:  1  [  0 KB/s  ]  
 
Автор Сообщение

leon030982

[] 

Траффик / Наркоторговля / Путь героина / Traffik

Год выпуска: 1989
Страна: Великобритания
Жанр: драма, криминал
Продолжительность: ~00:51:00
Перевод: Любительский (одноголосый, закадровый) Д.Есарев
Русские субтитры: нет
Субтитры: eng

Режиссёр: Аластер Рейд

В ролях: Билл Пэтерсен, Линдси Данкан, Талат Хуссейн, Джулия Ормонд, Линда Бассетт, Тило Прюкнер, Филип Миддлмисс

Описание:
Сюжет сериала разделён на три сюжетные линии, действия которых происходят в Пакистане, Германии и Великобритании. Джек Литгоу становится главой министерства внутренних дел Великобритании и начинает борьбу с торговлей наркотиками, не зная, что его дочь — наркоманка. Благодаря его усилиям пакистанское правительство сжигает поля мака, который выращивали местные крестьяне. Пакистанский крестьянин Фазал выселен со своей земли, и ему приходится искать новую работу в Карачи. Его нанимает наркобарон Тарик Бут, который поставляет героин в Европу, сотрудничая с немцем Карлом Россхальдом. Россхальда арестовывает полиция, а на свободе остаётся его ничего, не знающая жена, которой приходится разбираться с делами мужа.
Драматический сериал о международной торговле героином – откровенная и захватывающая хроника нелегального пути наркотиков с полей Пакистана до улиц Великобритании.


Сэмпл

Качество: DVDRip-AVC
Формат: MKV
Видео кодек: H.264
Аудио кодек: AC3
Видео: AVC, 696x574@742x574 at 25.000 fps, x264@L3.1, ~2800 Kbps avg, 0.288 bit/pixel
Аудио #1: AC3 ,2/0 (L,R) ch ,48 kHz ,192.00 kbps VO Д.Есарев
Аудио #2: AC3 ,2/0 (L,R) ch ,48 kHz ,192.00 kbps original

Цитата:

Очень раритетный и культовый сериал,доступен благодаря великолепному переводу Д.Есарева и спонсорской поддержке очень хорошего человека будулайроманова!!!
Serial.Traffik (1989)-lord_i_74\01.Seria.mkv
Формат : Matroska
Версия формата : Version 2
Размер файла : 1,16 Гбайт
Продолжительность : 50 м.
Общий поток : 3324 Кбит/сек
Название фильма : Traffik.1989.Ep01//релиз Переулок Переводмана
Дата кодирования : UTC 2013-08-24 14:58:00
Программа кодирования : mkvmerge v5.0.1 ('Es ist Sommer') built on Oct 9 2011 11:55:43
Библиотека кодирования : libebml v1.2.2 + libmatroska v1.3.0
Видео
Идентификатор : 1
Формат : AVC
Формат/Информация : Advanced Video Codec
Профиль формата : High@L3.1
Параметр CABAC формата : Да
Параметр ReFrames формата : 9 кадров
Параметры GOP формата : M=4, N=8
Идентификатор кодека : V_MPEG4/ISO/AVC
Продолжительность : 50 м.
Битрейт : 2874 Кбит/сек
Ширина : 696 пикс.
Высота : 574 пикс.
Соотношение сторон : 1,293
Частота кадров : 25,000 кадр/сек
Цветовое пространство : YUV
Подвыборка цветности : 4:2:0
Битовая глубина : 8 бит
Тип развёртки : Прогрессивная
Бит/(Пиксели*Кадры) : 0.288
Размер потока : 1,01 Гбайт (86%)
Заголовок : Traffik.1989.Ep01
Библиотека кодирования : x264 core 119
Настройки программы : cabac=1 / ref=9 / deblock=1:-2:-2 / analyse=0x3:0x133 / me=umh / subme=9 / psy=1 / psy_rd=1.00:0.00 / mixed_ref=1 / me_range=24 / chroma_me=1 / trellis=2 / 8x8dct=1 / cqm=0 / deadzone=21,11 / fast_pskip=0 / chroma_qp_offset=-2 / threads=12 / sliced_threads=0 / nr=0 / decimate=1 / interlaced=0 / bluray_compat=0 / constrained_intra=0 / bframes=6 / b_pyramid=2 / b_adapt=2 / b_bias=0 / direct=3 / weightb=1 / open_gop=0 / weightp=2 / keyint=250 / keyint_min=25 / scenecut=40 / intra_refresh=0 / rc_lookahead=50 / rc=crf / mbtree=1 / crf=20.5 / qcomp=0.60 / qpmin=3 / qpmax=69 / qpstep=4 / ip_ratio=1.40 / aq=1:1.20
Язык : English
Основные цвета : BT.601-6 525, BT.1358 525, BT.1700 NTSC, SMPTE 170M
Характеристики трансфера : BT.709-5, BT.1361
Коэффициенты матрицы : BT.601-6 525, BT.1358 525, BT.1700 NTSC, SMPTE 170M
Аудио #1
Идентификатор : 2
Формат : AC-3
Формат/Информация : Audio Coding 3
Расширение режима : CM (complete main)
Идентификатор кодека : A_AC3
Продолжительность : 50 м.
Вид битрейта : Постоянный
Битрейт : 192 Кбит/сек
Каналы : 2 канала
Расположение каналов : Front: L R
Частота : 48,0 КГц
Битовая глубина : 16 бит
Метод сжатия : С потерями
Размер потока : 68,8 Мбайт (6%)
Заголовок : VO Дмитрий Есарев
Язык : Russian
Аудио #2
Идентификатор : 3
Формат : AC-3
Формат/Информация : Audio Coding 3
Расширение режима : CM (complete main)
Идентификатор кодека : A_AC3
Продолжительность : 50 м.
Вид битрейта : Постоянный
Битрейт : 192 Кбит/сек
Каналы : 2 канала
Расположение каналов : Front: L R
Частота : 48,0 КГц
Битовая глубина : 16 бит
Метод сжатия : С потерями
Размер потока : 68,8 Мбайт (6%)
Язык : English
Текст
Идентификатор : 4
Формат : VobSub
Режим смешивания : zlib
Идентификатор кодека : S_VOBSUB
Идентификатор кодека/Информация : The same subtitle format used on DVDs
Язык : English
Меню
00:00:00.000 : en:Chapter 1
00:07:12.880 : en:Chapter 2
00:13:31.920 : en:Chapter 3
00:23:55.480 : en:Chapter 4
00:29:52.760 : en:Chapter 5
00:35:26.320 : en:Chapter 6
00:40:20.440 : en:Chapter 7
00:44:54.040 : en:Chapter 8
00:49:57.720 : en:Chapter 9



Скачать Траффик.Наркоторговля.Путь.героина.Traffik.(Сезон.1.Серии.1-6.из.6).(Аластер.Рейд).[1989.драма.криминал.DVDRip-AVC].[VO].(Д.Есарев).+.Original.torrent без регистрации
Золото ЗОЛОТАЯ РАЗДАЧА! СКАЧАННОЕ НЕ ЗАСЧИТЫВАЕТСЯ! Золото
Дата: Зарегистрирован   [ Тип: внутренний ] Как тут cкачать?
MAGNET ссылка
MAGNET ссылка


Скачать .torrent

39 KB

Статус: проверено DHT
Скачан: торрент - 158 раз, раздача полностью - 130 раз
Размер: 7,62 GB
Оценка:  - (Голосов: 0)
Поблагодарили: 1
Поделиться ссылкой на эту раздачу с друзьями:
В контактеFacebookОдноклассникиTwitterLivejournalМой МирLiveinternet
 

 
Показать сообщения:    


Вы не можете начинать темы
Вы не можете отвечать на сообщения
Вы не можете редактировать свои сообщения
Вы не можете удалять свои сообщения
Вы не можете голосовать в опросах
Вы не можете прикреплять файлы к сообщениям
Вы можете скачивать файлы