Loading...
Error

Скачать Незаконченная жизнь / An Unfinished Life (Лассе Халльстрём / Lasse Hallström) [2005, драма, BDRip] [AVO] (Юрий Сербин) + Original Eng торрент без регистрации

 
Статистика раздачи
Размер:  1,42 GB   |    Скачан:  97 раз
Сидов:  1  [  0 KB/s  ]  
 
Автор Сообщение

leon030982

[] 

Незаконченная жизнь / An Unfinished Life


Год выпуска: 2005
Страна: США, Германия
Жанр: драма
Продолжительность: 01:47:50
Перевод: Авторский (одноголосый, закадровый)[Юрий Сербин]
Cубтитры: нет
Оригинальная аудиодорожка: английский

Режиссёр: Лассе Халльстрём / Lasse Hallström

В ролях: Роберт Редфорд, Дженнифер Лопез, Морган Фриман, Джош Лукас, Дамиан Льюис, Камрин Менхейм, Бекка Гарднер, Линда Бойд, Роб Хэйтер, П. Линн Джонсон, Байрон Лукас, Тревор Мосс

Описание: Эйнар Джилкисон, на протяжении последних десяти лет тяжело переживающий смерть своего единственного сына, совершенно запустил собственное ранчо и разрушил свой брак. Единственный человек, о котором Эйнар продолжает заботиться, - это его наёмный работник и друг Митч, который был страшно искалечен медведем-гризли.
Утратив всякую связь с внешним миром, Эйнар собирается именно так провести остаток своей жизни. Но однажды к нему приезжает его невестка Джин, которую он винит в смерти сына. Джин тоже переживает далеко не лучший период в своей жизни: она разорена, находится в бегах, и у неё на руках девочка по имени Грифф, которая, по словам Джин, приходится внучкой Эйнару..




Качество: BDRip
Формат: AVI
Видео кодек: XviD
Аудио кодек: AC3
Видео: XviD build 50, 720x304 (2.37:1), 23.976 fps, 1486 kbps avg, 0.28 bit/pixel
Аудио #1: AC3 Dolby Digital, 48 kHz, 2 (L,R) ch, 192 kbps avg [AVO]
Аудио #2: AC3 Dolby Digital, 48 kHz, 2 (L,R) ch, 192 kbps avg [ENG]

Цитата:

За перевод Сербина благодарим - tasoR
За видео ряд благодарим - порошков
Общее
Полное имя : F:\An Unfinished Life (Незаконченная жизнь) BDRip.Serbin.English.avi
Формат : AVI
Формат/Информация : Audio Video Interleave
Размер файла : 1,42 Гбайт
Продолжительность : 1 ч. 47 м.
Общий поток : 1884 Кбит/сек
Программа кодирования : VirtualDubMod 1.5.10.3 (build 2550/release)
Библиотека кодирования : VirtualDubMod build 2550/release
Видео
Идентификатор : 0
Формат : MPEG-4 Visual
Профиль формата : Advanced Simple@L5
Параметр BVOP формата : 1
Параметр QPel формата : Нет
Параметр GMC формата : Без точки перехода
Параметр матрицы формата : Выборочная
Идентификатор кодека : XVID
Идентификатор кодека/Подсказка : XviD
Продолжительность : 1 ч. 47 м.
Битрейт : 1486 Кбит/сек
Ширина : 720 пикселей
Высота : 304 пикселя
Соотношение сторон : 2,35:1
Частота кадров : 23,976 кадра/сек
Цветовое пространство : YUV
Субдискретизация насыщенности : 4:2:0
Битовая глубина : 8 бит
Тип развёртки : Прогрессивная
Метод сжатия : С потерями
Бит/(Пиксели*Кадры) : 0.283
Размер потока : 1,12 Гбайт (79%)
Библиотека кодирования : XviD 1.2.1 (UTC 2008-12-04)
Аудио #1
Идентификатор : 1
Формат : AC-3
Формат/Информация : Audio Coding 3
Расширение режима : CM (complete main)
Параметр Endianness формата : Big
Идентификатор кодека : 2000
Продолжительность : 1 ч. 47 м.
Вид битрейта : Постоянный
Битрейт : 192 Кбит/сек
Каналы : 2 канала
Расположение каналов : Front: L R
Частота : 48,0 КГц
Битовая глубина : 16 бит
Метод сжатия : С потерями
Размер потока : 148 Мбайт (10%)
Выравнивание : Разделение по промежуткам
Продолжительность промежутка : 42 мс. (1,00 видеокадр)
Время предзагрузки промежутка : 500 мс.
Аудио #2
Идентификатор : 2
Формат : AC-3
Формат/Информация : Audio Coding 3
Расширение режима : CM (complete main)
Параметр Endianness формата : Big
Идентификатор кодека : 2000
Продолжительность : 1 ч. 47 м.
Вид битрейта : Постоянный
Битрейт : 192 Кбит/сек
Каналы : 2 канала
Расположение каналов : Front: L R
Частота : 48,0 КГц
Битовая глубина : 16 бит
Метод сжатия : С потерями
Размер потока : 148 Мбайт (10%)
Выравнивание : Разделение по промежуткам
Продолжительность промежутка : 42 мс. (1,00 видеокадр)
Время предзагрузки промежутка : 500 мс.



Скачать Незаконченная.жизнь.An.Unfinished.Life.(Лассе.Халльстрём.Lasse.Hallström).[2005.драма.BDRip].[AVO].(Юрий.Сербин).+.Original.Eng.torrent без регистрации
Золото ЗОЛОТАЯ РАЗДАЧА! СКАЧАННОЕ НЕ ЗАСЧИТЫВАЕТСЯ! Золото
Дата: Зарегистрирован   [ Тип: внутренний ] Как тут cкачать?
MAGNET ссылка
MAGNET ссылка


Скачать .torrent

15 KB

Статус: проверено DHT
Скачан: торрент - 97 раз, раздача полностью - 0 раз
Размер: 1,42 GB
Оценка:  - (Голосов: 0)
Поблагодарили: 2
Поделиться ссылкой на эту раздачу с друзьями:
В контактеFacebookОдноклассникиTwitterLivejournalМой МирLiveinternet
 

 
Показать сообщения:    


Вы не можете начинать темы
Вы не можете отвечать на сообщения
Вы не можете редактировать свои сообщения
Вы не можете удалять свои сообщения
Вы не можете голосовать в опросах
Вы не можете прикреплять файлы к сообщениям
Вы можете скачивать файлы