Loading...
Error

Скачать Кто этот человек? / Kim jest ten czlowiek? (Эва Петельска, Чеслав Петельский) [1984, драма, приключения, военный, DVDRip] [Dub] торрент без регистрации

 
Статистика раздачи
Размер:  1,45 GB   |    Скачан:  105 раз
Сидов:  1  [  0 KB/s  ]  
 
Автор Сообщение

Marsianka

[] 

Год выпуска: 1984
Страна: Польша
Студия: Студия «Иллюзион»

Перевод: Профессиональный (полное дублирование)
Субтитры: нет
Жанр: драма, приключения, военный
Продолжительность: 01:26:02

Режиссер: Эва Петельска, Чеслав Петельский / Ewa Petelska, Czeslaw Petelscy

В ролях: Хенрик Талар, Эва Шикульска, Венчислав Глинский, Кшиштоф Хамец, Януш Клосинский...
Дублировали: Юрий Демич, Игорь Ефимов, Александр Демьяненко, Павел Кашлаков, Эрнст Романов...

Описание: Фильм повествуют о сложной и бескомпромиссной борьбе германской (Абвер) и польской (2-ой отдел Главного штаба) разведывательных структур накануне Второй мировой войны. В эту борьбу оказывается втянутым и главный герой капитан Адам Ивинский...


Исходник: DVD5 R5
Тип релиза: DVDRip
Контейнер: AVI

Видео: 688x512 (4:3), 25 fps, XviD ~ 2218 kbps avg, 0.252 bit/pixel
Аудио: 48 kHz, AC3, 2 ch, 192.00 kbps

Общее
Полное имя : Kto.etot.chelovek.1984.D.DVDRip_[Youtracker]_by_AVP Studio.avi
Формат : AVI
Формат/Информация : Audio Video Interleave
Размер файла : 1,45 Гбайт
Продолжительность : 1 ч. 26 м.
Общий поток : 2420 Кбит/сек
Программа кодирования : VirtualDubMod 1.5.10.3 | www.virtualdub-fr.org || (build 2550/release)
Библиотека кодирования : VirtualDubMod build 2550/release

Видео
Идентификатор : 0
Формат : MPEG-4 Visual
Профиль формата : Advanced Simple@L5
Параметр BVOP формата : 1
Параметр QPel формата : Нет
Параметр GMC формата : Без точки перехода
Параметр матрицы формата : Выборочная
Идентификатор кодека : XVID
Идентификатор кодека/Подсказка : XviD
Продолжительность : 1 ч. 26 м.
Битрейт : 2218 Кбит/сек
Ширина : 688 пикселей
Высота : 512 пикселей
Соотношение сторон : 4:3
Частота кадров : 25,000 кадров/сек
Цветовое пространство : YUV
Субдискретизация насыщенности : 4:2:0
Битовая глубина : 8 бит
Тип развёртки : Прогрессивная
Метод сжатия : С потерями
Бит/(Пиксели*Кадры) : 0.252
Размер потока : 1,33 Гбайт (92%)
Библиотека кодирования : XviD 65

Аудио
Идентификатор : 1
Формат : AC-3
Формат/Информация : Audio Coding 3
Расширение режима : CM (complete main)
Идентификатор кодека : 2000
Продолжительность : 1 ч. 26 м.
Вид битрейта : Постоянный
Битрейт : 192 Кбит/сек
Каналы : 2 канала
Расположение каналов : Front: L R
Частота : 48,0 КГц
Битовая глубина : 16 бит
Метод сжатия : С потерями
Размер потока : 118 Мбайт (8%)
Выравнивание : Разделение по промежуткам
Продолжительность промежутка : 40 мс. (1,00 видеокадр)
Время предзагрузки промежутка : 500 мс



Скачать Кто.этот.человек?.Kim.jest.ten.czlowiek?.(Эва.Петельска.Чеслав.Петельский).[1984.драма.приключения.военный.DVDRip].[Dub].torrent без регистрации
Золото ЗОЛОТАЯ РАЗДАЧА! СКАЧАННОЕ НЕ ЗАСЧИТЫВАЕТСЯ! Золото
Дата: Зарегистрирован   [ Тип: внутренний ] Как тут cкачать?
MAGNET ссылка
MAGNET ссылка


Скачать .torrent

15 KB

Статус: проверено DHT
Скачан: торрент - 105 раз, раздача полностью - 3 раз
Размер: 1,45 GB
Оценка:  - (Голосов: 0)
Поблагодарили: 1
Поделиться ссылкой на эту раздачу с друзьями:
В контактеFacebookОдноклассникиTwitterLivejournalМой МирLiveinternet
 

 
Показать сообщения:    


Вы не можете начинать темы
Вы не можете отвечать на сообщения
Вы не можете редактировать свои сообщения
Вы не можете удалять свои сообщения
Вы не можете голосовать в опросах
Вы не можете прикреплять файлы к сообщениям
Вы можете скачивать файлы