Loading...
Error

Скачать Маркиза фон О / Die Marquise von O... (Эрик Ромер) [1976, драма, история, DVDRip-AVC] [MVO]+[Sub] торрент без регистрации

 
Статистика раздачи
Размер:  1,85 GB   |    Скачан:  93 раза

Полного источника не было: 20 минут

 
Автор Сообщение

Marsianka

[] 

Информация о фильме
Название: Маркиза фон О
Оригинальное название: Die Marquise von O...
Год выхода: 1976
Жанр: драма, история
Режиссер: Эрик Ромер
В ролях: Эдит Клевер, Бруно Ганц, Петер Люр, Отто Зандер, Эдуард Линкерс, Рут Дрексел, Бернхард Фрэй, Томас Штраус, Фолькер Прехтель, Мэрион Мюллер, Хайди Мёллер, Петра Мейер, Мануэла Майер

О фильме:
В 1799 г. Войска под командованием А.В. Суворова входят в Италию и на театре военных действий начинают мелькать женщины.
Изголодавшиеся солдаты входят в замок молодой маркизы, дочери офицера и вдовы. От грубых оскорблений и домогательств ее спасает русский дворянин.
Будет ли она милостива к нему, ведь для нее в любом случае он захватчик и враг? Война войной, но чувства не дремлют, и вскоре наша героиня обнаруживает, что она забеременела

Экранизация одноимённой новеллы Клейста.
Фильм выделяется образцовой операторской работой Нестора Альмендроса, словно бы перенёсшего на экран живописные образы кисти художников наполеоновской эпохи, не впадая при этом в картинную статуарность. По мнению кинообозревателя The New York Times, при создании образного ряда картины Альмендрос вдохновлялся давидовским «Портретом мадам Рекамье» (1800).Подобные изобразительные решения одновременно с Альмендросом использовал Кубрик при съёмках «Барри Линдона».
Влияние альмендросовского подхода на собственное творчество признаёт Питер Гринуэй, который выдержал визуальный ряд своего фильма о Рембрандте (2007) в стилистике полотен этого художника.
Страна: Франция, Германия (ФРГ)
Студия: Artemis Film, Gaumont, Hessischer Rundfunk (HR), Janus Film, Janus Filmproduktion GmbH, Les Films du Losange
Продолжительность: 01:38:21.960
Перевод: Профессиональный (многоголосый закадровый) R5 Видеоимпульс

Файл
Кодек: h.264
Качество: DVDRip-AVC
Видео: 688x560 (4:3) @ 728x560 (анаморф), 25.000 fps, AVC, ~2179 Kbps, 0.226 bits/pixel
Звук:
Русский, 48.0 KHz, AC3, 2 ch, 256 Kbps
Немецкий, 48.0 KHz, AC3, 2 ch, 256 Kbps
Субтитры: Русские, VobSub
Исходник R5 Видеоимпульс
Общее
Уникальный идентификатор : 247087600125352111068313734166475177124 (0xB9E3573E75DA5122B55FE66A9097FCA4)
Полное имя : D:FilmsMarkiza_fon_O.1976.DVDRip-AVC.mkv
Формат : Matroska
Версия формата : Version 4 / Version 2
Размер файла : 1,85 Гбайт
Продолжительность : 1 ч. 38 м.
Общий поток : 2695 Кбит/сек
Дата кодирования : UTC 2014-01-12 08:58:02
Программа кодирования : mkvmerge v6.7.0 ('Back to the Ground') 64bit built on Jan 8 2014 15:10:52
Библиотека кодирования : libebml v1.3.0 + libmatroska v1.4.1

Видео
Идентификатор : 1
Формат : AVC
Формат/Информация : Advanced Video Codec
Профиль формата : High@L4.1
Параметр CABAC формата : Да
Параметр ReFrames формата : 16 кадров
Идентификатор кодека : V_MPEG4/ISO/AVC
Продолжительность : 1 ч. 38 м.
Битрейт : 2179 Кбит/сек
Ширина : 688 пикселей
Высота : 560 пикселей
Соотношение сторон : 4:3
Режим частоты кадров : Постоянный
Частота кадров : 25,000 кадров/сек
Цветовое пространство : YUV
Субдискретизация насыщенности : 4:2:0
Битовая глубина : 8 бит
Тип развёртки : Прогрессивная
Бит/(Пиксели*Кадры) : 0.226
Размер потока : 1,46 Гбайт (79%)
Библиотека кодирования : x264 core 138 r2358 9e941d1
Настройки программы : cabac=1 / ref=16 / deblock=1:0:0 / analyse=0x3:0x133 / me=umh / subme=10 / psy=1 / psy_rd=1.05:0.10 / mixed_ref=1 / me_range=32 / chroma_me=1 / trellis=2 / 8x8dct=1 / cqm=0 / deadzone=21,11 / fast_pskip=0 / chroma_qp_offset=-3 / threads=8 / lookahead_threads=2 / sliced_threads=0 / nr=0 / decimate=0 / interlaced=0 / bluray_compat=0 / constrained_intra=0 / bframes=12 / b_pyramid=2 / b_adapt=2 / b_bias=0 / direct=3 / weightb=1 / open_gop=0 / weightp=2 / keyint=250 / keyint_min=25 / scenecut=40 / intra_refresh=0 / rc_lookahead=60 / rc=2pass / mbtree=0 / bitrate=2179 / ratetol=1.0 / qcomp=0.60 / qpmin=0 / qpmax=60 / qpstep=4 / cplxblur=20.0 / qblur=0.5 / vbv_maxrate=50000 / vbv_bufsize=62500 / nal_hrd=none / ip_ratio=1.40 / pb_ratio=1.30 / aq=1:1.00
Default : Нет
Forced : Нет
Коэффициенты матрицы : BT.601

Аудио #1
Идентификатор : 2
Формат : AC-3
Формат/Информация : Audio Coding 3
Расширение режима : CM (complete main)
Параметр Endianness формата : Big
Идентификатор кодека : A_AC3
Продолжительность : 1 ч. 38 м.
Вид битрейта : Постоянный
Битрейт : 256 Кбит/сек
Каналы : 2 канала
Расположение каналов : Front: L R
Частота : 48,0 КГц
Битовая глубина : 16 бит
Метод сжатия : С потерями
Размер потока : 180 Мбайт (10%)
Язык : Russian
Default : Да
Forced : Нет

Аудио #2
Идентификатор : 3
Формат : AC-3
Формат/Информация : Audio Coding 3
Расширение режима : CM (complete main)
Параметр Endianness формата : Big
Идентификатор кодека : A_AC3
Продолжительность : 1 ч. 38 м.
Вид битрейта : Постоянный
Битрейт : 256 Кбит/сек
Каналы : 2 канала
Расположение каналов : Front: L R
Частота : 48,0 КГц
Битовая глубина : 16 бит
Метод сжатия : С потерями
Размер потока : 180 Мбайт (10%)
Язык : German
Default : Нет
Forced : Нет

Текст
Идентификатор : 4
Формат : VobSub
Режим смешивания : zlib
Идентификатор кодека : S_VOBSUB
Идентификатор кодека/Информация : The same subtitle format used on DVDs
Язык : Russian
Default : Нет
Forced : Нет

Меню
00:00:00.000 : en:Chapter 01
00:09:29.520 : en:Chapter 02
00:14:00.000 : en:Chapter 03
00:18:29.880 : en:Chapter 04
00:30:59.880 : en:Chapter 05
00:37:07.000 : en:Chapter 06
00:49:00.880 : en:Chapter 07
00:56:32.560 : en:Chapter 08
01:09:13.800 : en:Chapter 09
01:19:35.520 : en:Chapter 10
01:26:20.040 : en:Chapter 11
01:33:37.560 : en:Chapter 12
Релиз от: Temperest



Скачать Маркиза.фон.О.Die.Marquise.von.O.(Эрик.Ромер).[1976.драма.история.DVDRip-AVC].[MVO]+[Sub].torrent без регистрации
Золото ЗОЛОТАЯ РАЗДАЧА! СКАЧАННОЕ НЕ ЗАСЧИТЫВАЕТСЯ! Золото
Дата: Зарегистрирован   [ Тип: внутренний ] Как тут cкачать?
MAGNET ссылка
MAGNET ссылка


Скачать .torrent

19 KB

Статус: проверено DHT
Скачан: торрент - 93 раз, раздача полностью - 4 раз
Размер: 1,85 GB
Оценка:  - (Голосов: 0)
Поблагодарили: 2
Поделиться ссылкой на эту раздачу с друзьями:
В контактеFacebookОдноклассникиTwitterLivejournalМой МирLiveinternet
 

 
Показать сообщения:    


Вы не можете начинать темы
Вы не можете отвечать на сообщения
Вы не можете редактировать свои сообщения
Вы не можете удалять свои сообщения
Вы не можете голосовать в опросах
Вы не можете прикреплять файлы к сообщениям
Вы можете скачивать файлы