Loading...
Error

/ Alien ( / Ridley Scott) [1979, , , BDRip] [ / Theatrical cut] [DUB]

 
1,46 GB   |    :  145
1  [  0 KB/s  ]  
 

leon030982

[] 

/ Alien
...

: 1979
: , / Twentieth Century-Fox Productions Ltd.
: ,
: 01:56:37
: ( )
BD CEE
C:
:
/ Ridley Scott
:
(Ripley), (Dallas), (Ash), ո (Kane), (Brett), (Lambert), (Parker), (Alien), (Mother, ), (Alien)
:
. , . , ,
IMDB | |
: BDRip [BDRemux]
: AVI
: 720x304 (2.37:1), 23.976 fps, XviD build 73 ~1334 kbps avg, 0.25 bit/pixel
: 48 kHz, AC3 Dolby Digital, 3/2 (L,C,R,l,r) + LFE ch, ~448.00 kbps avg

:

General
Complete name : D:\Chuzhoy_1979_BDRip_[Theatrical_cut]_by_Dalemake.avi
Format : AVI
Format/Info : Audio Video Interleave
File size : 1.46 GiB
Duration : 1h 56mn
Overall bit rate : 1 791 Kbps
Writing application : VirtualDubMod 1.5.10.3 | www.virtualdub-fr.org || (build 2550/release)
Writing library : VirtualDubMod build 2550/release
Video
ID : 0
Format : MPEG-4 Visual
Format profile : Advanced Simple@L5
Format settings, BVOP : 1
Format settings, QPel : No
Format settings, GMC : No warppoints
Format settings, Matrix : Custom
Codec ID : XVID
Codec ID/Hint : XviD
Duration : 1h 56mn
Bit rate : 1 334 Kbps
Width : 720 pixels
Height : 304 pixels
Display aspect ratio : 2.35:1
Frame rate : 23.976 fps
Color space : YUV
Chroma subsampling : 4:2:0
Bit depth : 8 bits
Scan type : Progressive
Compression mode : Lossy
Bits/(Pixel*Frame) : 0.254
Stream size : 1.09 GiB (74%)
Writing library : XviD 73
Audio
ID : 1
Format : AC-3
Format/Info : Audio Coding 3
Mode extension : CM (complete main)
Format settings, Endianness : Big
Codec ID : 2000
Duration : 1h 56mn
Bit rate mode : Constant
Bit rate : 448 Kbps
Channel(s) : 6 channels
Channel positions : Front: L C R, Side: L R, LFE
Sampling rate : 48.0 KHz
Bit depth : 16 bits
Compression mode : Lossy
Stream size : 374 MiB (25%)
Alignment : Split accross interleaves
Interleave, duration : 42 ms (1.00 video frame)
Interleave, preload duration : 500 ms



.Alien.(..Ridley.Scott).[1979...BDRip].[..Theatrical.cut].[DUB].torrent
  ! ! 
:   [ : ] c?
MAGNET
MAGNET


.torrent

15 KB

: DHT
: - 145 , - 115
: 1,46 GB
4,7 (: 3)
: 5
:
 FacebookTwitterLivejournal Liveinternet
 

 
: