Loading...
Error

Скачать Разрушительница / The Demolitionist (Роберт Куртцман) [1995, фантастика, боевик, триллер, BDRip-AVC] [DVO] торрент без регистрации

 
Статистика раздачи
Размер:  1,45 GB   |    Скачан:  99 раз
Сидов:  1  [  0 KB/s  ]  
 
Автор Сообщение

Marsianka

[] 

Разрушительница / The Demolitionist (1995) BDRip-AVC

Информация о фильме
Название: Разрушительница
Оригинальное название: The Demolitionist
Год выхода: 1995
Жанр: фантастика, боевик, триллер
Режиссер: Роберт Куртцман

В ролях: Николь Эггерт, Брюс Эбботт, Сьюзан Тиррелл, Питер Джейсон, Сара Даглас, Ричард Грико, Андраш Джоунс, Хезер Лэнгенкэмп, Дэвид Энтони Маршалл, Джек Нэнс, Джозеф Пилато, Том Савини, Нилс Аллен Стюарт...

О фильме: Волна преступности захлестнула Метро-сити. Во время одной из специальных операций офицер полиции Алиса Ллойд была зверски убита Бешеным Псом и его бандой. Но с помощью чудо технологии сверхсекретного проекта «Лазарус» Алиса Ллойд вернулась из мертвых.

Теперь она «Разрушительница», новое поколение сил охраны правопорядка, биогенетически усовершенствованный солдат правосудия, вооруженный всеми видами суперсовременного оружия. «Разрушительница» начинает свой крестовый поход против банды Бешеного Пса. На этот раз война с преступностью ведется с применением самых крайних мер.



Страна: США
Продолжительность: 01:32:58
Перевод: Профессиональный (двухголосый закадровый)

Файл
Кодек: x.264
Качество: BDRip-AVC
Видео: 976x552 (16:9), 24 fps, 2043 kbps, 0.158 bit/pixel
Звук: 48 kHz, AC3 Dolby Digital, 2 ch, ~192.00 kbps

&
Общее
Уникальный идентификатор : 176729599674850116947246992509201533742 (0x84F4E1FFA95DE15D8EDC6D8F1E8FCB2E)
Полное имя : D:The Demolitionist.1995.BDRip-AVC.mkv
Формат : Matroska
Версия формата : Version 4 / Version 2
Размер файла : 1,45 Гбайт
Продолжительность : 1 ч. 32 м.
Общий поток : 2236 Кбит/сек
Название фильма : Разрушительница / The Demolitionist (1996) BDRip-AVC rip by Rulya74
Дата кодирования : UTC 2014-03-21 14:27:21
Программа кодирования : mkvmerge v6.5.0 ('Isn't she lovely') built on Oct 20 2013 12:50:05
Библиотека кодирования : libebml v1.3.0 + libmatroska v1.4.1

Видео
Идентификатор : 1
Формат : AVC
Формат/Информация : Advanced Video Codec
Профиль формата : High@L4.1
Параметр CABAC формата : Да
Параметр ReFrames формата : 10 кадров
Идентификатор кодека : V_MPEG4/ISO/AVC
Продолжительность : 1 ч. 32 м.
Битрейт : 2043 Кбит/сек
Ширина : 976 пикселей
Высота : 552 пикселя
Соотношение сторон : 16:9
Режим частоты кадров : Постоянный
Частота кадров : 24,000 кадра/сек
Цветовое пространство : YUV
Субдискретизация насыщенности : 4:2:0
Битовая глубина : 8 бит
Тип развёртки : Прогрессивная
Бит/(Пиксели*Кадры) : 0.158
Размер потока : 1,30 Гбайт (89%)
Библиотека кодирования : x264 core 130 r2273 b3065e6
Настройки программы : cabac=1 / ref=10 / deblock=1:-1:-1 / analyse=0x3:0x110 / me=umh / subme=11 / psy=1 / psy_rd=1.10:0.30 / mixed_ref=1 / me_range=48 / chroma_me=1 / trellis=2 / 8x8dct=1 / cqm=0 / deadzone=21,11 / fast_pskip=0 / chroma_qp_offset=-4 / threads=4 / lookahead_threads=1 / sliced_threads=0 / nr=0 / decimate=1 / interlaced=0 / bluray_compat=0 / constrained_intra=0 / bframes=6 / b_pyramid=2 / b_adapt=2 / b_bias=0 / direct=3 / weightb=1 / open_gop=0 / weightp=2 / keyint=250 / keyint_min=23 / scenecut=40 / intra_refresh=0 / rc_lookahead=50 / rc=2pass / mbtree=1 / bitrate=2043 / ratetol=1.0 / qcomp=0.60 / qpmin=0 / qpmax=69 / qpstep=4 / cplxblur=20.0 / qblur=0.5 / ip_ratio=1.40 / aq=1:1.00
Default : Да
Forced : Нет

Аудио
Идентификатор : 2
Формат : AC-3
Формат/Информация : Audio Coding 3
Расширение режима : CM (complete main)
Параметр Endianness формата : Big
Идентификатор кодека : A_AC3
Продолжительность : 1 ч. 32 м.
Вид битрейта : Постоянный
Битрейт : 192 Кбит/сек
Каналы : 2 канала
Расположение каналов : Front: L R
Частота : 48,0 КГц
Битовая глубина : 16 бит
Метод сжатия : С потерями
Размер потока : 128 Мбайт (9%)
Заголовок : Профессиональный (двухголосый закадровый)
Язык : Russian
Default : Да
Forced : Нет



Скачать Разрушительница.The.Demolitionist.(Роберт.Куртцман).[1995.фантастика.боевик.триллер.BDRip-AVC].[DVO].torrent без регистрации
Золото ЗОЛОТАЯ РАЗДАЧА! СКАЧАННОЕ НЕ ЗАСЧИТЫВАЕТСЯ! Золото
Дата: Зарегистрирован   [ Тип: внутренний ] Как тут cкачать?
MAGNET ссылка
MAGNET ссылка


Скачать .torrent

15 KB

Статус: проверено DHT
Скачан: торрент - 99 раз, раздача полностью - 5 раз
Размер: 1,45 GB
Оценка:  - (Голосов: 0)
Поблагодарили: 1
Поделиться ссылкой на эту раздачу с друзьями:
В контактеFacebookОдноклассникиTwitterLivejournalМой МирLiveinternet
 

 
Показать сообщения:    


Вы не можете начинать темы
Вы не можете отвечать на сообщения
Вы не можете редактировать свои сообщения
Вы не можете удалять свои сообщения
Вы не можете голосовать в опросах
Вы не можете прикреплять файлы к сообщениям
Вы можете скачивать файлы