Loading...
Error

Скачать Весенняя сказка / Conte de Printemps (Эрик Ромер) [1990, драма, мелодрама, комедия, BDRip] [MVO]+[Sub]x2 торрент без регистрации

 
Статистика раздачи
Размер:  1,81 GB   |    Скачан:  87 раз

Полного источника не было: 23 минуты

 
Автор Сообщение

Marsianka

[] 

Название: Весенняя сказка
Оригинальное название: Conte de Printemps
Год выпуска: 1990
Жанр: драма, мелодрама, комедия
Выпущено: Франция, Compagnie Eric Rohmer (CER), Investimage, Les Films du Losange
Режиссер: Эрик Ромер
В ролях: Анн Тейседр, Юг Кестер, Флоранс Дарель, Элоиз Беннетт, Софи Робин, Марк Лелю, Францис Лямор

О фильме: Жанна преподаёт философию в лицее. Её друг в отъезде. И хотя у неё есть ключи от двух квартир (своей и любовника), она не хочет возвращаться ни в одну из них. Тем временем познакомившаяся с ней на вечеринке студентка Наташа вовсе не против компании и предлагает Жанне переночевать вдвоём в парижских апартаментах её отца, поскольку Игорь (так его зовут) бывает, дескать, в них крайне редко. К тому же, женщины чувствуют друг к другу странную симпатию. Спустя ещё несколько дней они становятся неразлучны. Но вскоре выясняется, что одна из причин сближения стремление Наташи заменить нынешнюю любовницу своего отца на Жанну. Авторское кино Эрика Ромера. Первый фильм из цикла "Сказки о временах года".

Качество: BDRip
Видео: XviD, 2002 Кбит/с, 704x416
Аудио: Русский (AC3, 2 ch, 224 Кбит/с), французский (AC3 , 2 ch, 192 Кбит/с)
Размер: 1.81 ГБ
Продолжительность: 01:47:01
Перевод: Профессиональный многоголосый (Кармен Видео)
Субтитры: Русские, английские

Исходник: DarLeg (Рутрекер)

Сравнение с исходником

Общее
Полное имя : D:VideoVesennjaja skazka.1990.XviD.BDRipVesennjaja skazka.1990.eng.srt
Формат : SubRip
Размер файла : 102 Кбайт

Текст
Формат : SubRip
Метод сжатия : Без потерь

Общее
Полное имя : D:VideoVesennjaja skazka.1990.XviD.BDRipVesennjaja skazka.1990.Original.fre.ac3
Формат : AC-3
Формат/Информация : Audio Coding 3
Размер файла : 147 Мбайт
Продолжительность : 1 ч. 47 м.
Режим общего битрейта : Постоянный
Общий поток : 192 Кбит/сек

Аудио
Формат : AC-3
Формат/Информация : Audio Coding 3
Расширение режима : CM (complete main)
Параметр Endianness формата : Big
Продолжительность : 1 ч. 47 м.
Вид битрейта : Постоянный
Битрейт : 192 Кбит/сек
Каналы : 2 канала
Расположение каналов : Front: L R
Частота : 48,0 КГц
Битовая глубина : 16 бит
Метод сжатия : С потерями
Размер потока : 147 Мбайт (100%)

Общее
Полное имя : D:VideoVesennjaja skazka.1990.XviD.BDRipVesennjaja skazka.1990.rus.srt
Формат : SubRip
Размер файла : 171 Кбайт

Текст
Формат : SubRip
Метод сжатия : Без потерь

Общее
Полное имя : D:VideoVesennjaja skazka.1990.XviD.BDRipVesennjaja skazka.1990.XviD.BDRip.avi
Формат : AVI
Формат/Информация : Audio Video Interleave
Размер файла : 1,67 Гбайт
Продолжительность : 1 ч. 47 м.
Общий поток : 2235 Кбит/сек
Программа кодирования : VirtualDubMod 1.5.10.2 (build 2540/release)
Библиотека кодирования : VirtualDubMod build 2540/release

Видео
Идентификатор : 0
Формат : MPEG-4 Visual
Профиль формата : Advanced Simple@L5
Параметр BVOP формата : 1
Параметр QPel формата : Нет
Параметр GMC формата : Без точки перехода
Параметр матрицы формата : Default (H.263)
Режим смешивания : Сжатый битовый поток
Идентификатор кодека : XVID
Идентификатор кодека/Подсказка : XviD
Продолжительность : 1 ч. 47 м.
Битрейт : 2002 Кбит/сек
Ширина : 704 пикселя
Высота : 416 пикселей
Соотношение сторон : 1,692
Частота кадров : 24,000 кадра/сек
Цветовое пространство : YUV
Субдискретизация насыщенности : 4:2:0
Битовая глубина : 8 бит
Тип развёртки : Прогрессивная
Метод сжатия : С потерями
Бит/(Пиксели*Кадры) : 0.285
Размер потока : 1,50 Гбайт (90%)
Библиотека кодирования : XviD 1.2.1 (UTC 2008-12-04)

Аудио
Идентификатор : 1
Формат : AC-3
Формат/Информация : Audio Coding 3
Расширение режима : CM (complete main)
Параметр Endianness формата : Big
Идентификатор кодека : 2000
Продолжительность : 1 ч. 47 м.
Вид битрейта : Постоянный
Битрейт : 224 Кбит/сек
Каналы : 2 канала
Расположение каналов : Front: L R
Частота : 48,0 КГц
Битовая глубина : 16 бит
Метод сжатия : С потерями
Размер потока : 171 Мбайт (10%)
Выравнивание : Разделение по промежуткам
Продолжительность промежутка : 42 мс. (1,00 видеокадр)
Время предзагрузки промежутка : 500 мс.



Скачать Весенняя.сказка.Conte.de.Printemps.(Эрик.Ромер).[1990.драма.мелодрама.комедия.BDRip].[MVO]+[Sub]x2.torrent без регистрации
Золото ЗОЛОТАЯ РАЗДАЧА! СКАЧАННОЕ НЕ ЗАСЧИТЫВАЕТСЯ! Золото
Дата: Зарегистрирован   [ Тип: внутренний ] Как тут cкачать?
MAGNET ссылка
MAGNET ссылка


Скачать .torrent

37 KB

Статус: проверено DHT
Скачан: торрент - 87 раз, раздача полностью - 5 раз
Размер: 1,81 GB
Оценка:  - (Голосов: 0)
Поблагодарили: 1
Поделиться ссылкой на эту раздачу с друзьями:
В контактеFacebookОдноклассникиTwitterLivejournalМой МирLiveinternet
 

 
Показать сообщения:    


Вы не можете начинать темы
Вы не можете отвечать на сообщения
Вы не можете редактировать свои сообщения
Вы не можете удалять свои сообщения
Вы не можете голосовать в опросах
Вы не можете прикреплять файлы к сообщениям
Вы можете скачивать файлы