Loading...
Error

Скачать Лёгкие деньги / Easy Money (Джеймс Синьорелли / James Signorelli) [1983, комедия, DVDRip] [DVO] (студия "Ракурс") торрент без регистрации

 
Статистика раздачи
Размер:  1,44 GB   |    Скачан:  95 раз
Сидов:  1  [  0 KB/s  ]  
 
Автор Сообщение

leon030982

[] 

Лёгкие деньги / Easy Money


Год выпуска: 1983
Страна: США
Жанр: Комедия
Продолжительность: 01:35:36
Перевод: Профессиональный (двухголосый закадровый) (студия "Ракурс" для Екатеринбург Арт Home Video)
Текст читали: Виктор Петров и Людмила Ильина
Cубтитры: нет
Оригинальная аудиодорожка: нет

Режиссер: Джеймс Синьорелли / James Signorelli

В ролях: Родни Дейнджерфилд, Джо Пеши, Фрэнк Симпсон, Педро Е. Окампо-ст., Альфред Де Ла Фуэнте, Эрик Ван Валкенбург, Кэндис Аззара, Вэл Эвери, Тэйлор Негрон, Лили Хейден, Том Юэлл, Дженнифер Джейсон Ли, Джефф Олтмэн, Дэвид Васкес, Кимберли МакАртур, Арч Джонсон, Дэннис Блэр, Мэри Пэт Глисон, Анджела Пьетропинто, Филомена Спаньоло, Питер Д`Арси, Полли Магаро, Хэрш Нэйэр, Дик Марр

Описание: Веселая комедия о детском фотографе Монти Капулетти (Родни Данджерфилд). Монти обладает множеством дурных привычек — курит, пьёт, увлекается азартными играми, не прочь приударить за женщинами. Одновременно он отец семейства. Неожиданно приходит известие, что его богатая тёща погибла в авиакатастрофе. В соответствии с завещанием, семье Монти достанутся 10 миллионов долларов, но только в том случае, если он сумеет отказаться от всех своих дурных привычек на время одного года, а также сбросит лишний вес... Данджерфилд очень смешон в этой роли.



Качество видео: DVDRip
Формат: AVI
Видео кодек: XviD
Аудио кодек: AC3
Видео: XviD build 50, 704x384 (1.85:1), 23.976 fps, 1948 kbps avg
Аудио: AC3 Dolby Digital, 48 kHz, 2/0 (L,R) ch, 192.00 kbps avg
За русскую дорогу спасибо Fikaloid. Работа со звуком JUSTKANT - Спасибо!
General
Complete name : E:\INTERNET\Easy Money.1983.DV0_EA.DVDRip.avi
Format : AVI
Format/Info : Audio Video Interleave
File size : 1.44 GiB
Duration : 1h 35mn
Overall bit rate : 2 158 Kbps
Writing application : VirtualDubModRus 1.5.10.2 (build 2542/release)
Writing library : VirtualDubMod build 2542/release

Video
ID : 0
Format : MPEG-4 Visual
Format profile : Simple@L3
Format settings, BVOP : No
Format settings, QPel : No
Format settings, GMC : No warppoints
Format settings, Matrix : Default (H.263)
Codec ID : XVID
Codec ID/Hint : XviD
Duration : 1h 35mn
Bit rate : 1 957 Kbps
Width : 704 pixels
Height : 384 pixels
Display aspect ratio : 16:9
Frame rate : 23.976 fps
Color space : YUV
Chroma subsampling : 4:2:0
Bit depth : 8 bits
Scan type : Progressive
Compression mode : Lossy
Bits/(Pixel*Frame) : 0.302
Stream size : 1.31 GiB (91%)
Writing library : XviD 1.1.2 (UTC 2006-11-01)

Audio
ID : 1
Format : AC-3
Format/Info : Audio Coding 3
Mode extension : CM (complete main)
Codec ID : 2000
Duration : 1h 35mn
Bit rate mode : Constant
Bit rate : 192 Kbps
Channel(s) : 2 channels
Channel positions : Front: L R
Sampling rate : 48.0 KHz
Bit depth : 16 bits
Compression mode : Lossy
Stream size : 131 MiB (9%)
Alignment : Split accross interleaves
Interleave, duration : 42 ms (1.00 video frame)
Interleave, preload duration : 500 ms



Скачать Лёгкие.деньги.Easy.Money.(Джеймс.Синьорелли.James.Signorelli).[1983.комедия.DVDRip].[DVO].(студия."Ракурс").torrent без регистрации
Золото ЗОЛОТАЯ РАЗДАЧА! СКАЧАННОЕ НЕ ЗАСЧИТЫВАЕТСЯ! Золото
Дата: Зарегистрирован   [ Тип: внутренний ] Как тут cкачать?
MAGNET ссылка
MAGNET ссылка


Скачать .torrent

15 KB

Статус: проверено DHT
Скачан: торрент - 95 раз, раздача полностью - 9 раз
Размер: 1,44 GB
Оценка:  - (Голосов: 0)
Поблагодарили: 1
Поделиться ссылкой на эту раздачу с друзьями:
В контактеFacebookОдноклассникиTwitterLivejournalМой МирLiveinternet
 

 
Показать сообщения:    


Вы не можете начинать темы
Вы не можете отвечать на сообщения
Вы не можете редактировать свои сообщения
Вы не можете удалять свои сообщения
Вы не можете голосовать в опросах
Вы не можете прикреплять файлы к сообщениям
Вы можете скачивать файлы