Loading...
Error

Скачать На игле / Trainspotting (Дэнни Бойл) [1996, драма, комедия, криминал, BDRip-AVC] [MVO]+[VO]+[Оригинал] торрент без регистрации

 
Статистика раздачи
Размер:  2,46 GB   |    Скачан:  125 раз
Сидов:  1  [  28 KB/s  ]  
 
Автор Сообщение

Marsianka

[] 

На игле/ Trainspotting (1996) BDRip-AVC | P,P1


Название: На игле
Оригинальное название: Trainspotting
Год выхода: 1996
Жанр: драма, комедия, криминал
Режиссер: Дэнни Бойл
В ролях: Юэн МакГрегор, Юэн Бремнер, Джонни Ли Миллер, Кевин МакКидд, Роберт Карлайл, Келли Макдоналд, Питер Муллан, Джеймс Космо, Айлин Николас, Сьюзэн Видлер

О фильме:
Выбирай жизнь. Выбирай работу. Выбирай карьеру. Выбирай семью. Выбирай большие телевизоры, стиральные машины, автомобили, компакт-диск плэйеры, электрические консервные ножи. Выбирай хорошее здоровье, низкий уровень холестерина и стоматологическую страховку. Выбирай недвижимость и аккуратно выплачивай взносы. Выбери свой первый дом. Выбирай своих друзей. Выбери себе курорт и шикарные чемоданы. Выбери костюм-тройку лучшей фирмы из самого дорогого материала. Выбери набор «Сделай сам», чтобы было чем заняться воскресным утром. Выбери удобный диван, чтобы развалиться на нем и смотреть отупляющее шоу. Набивай свое брюхо всякой всячиной. Выбери загнивание в конце всего и вспомни со стыдом напоследок своих дружков-подонков, которых ты заложил чтобы выкарабкаться. Выбирай будущее. Выбирай жизнь. Но зачем мне все это? Я не стал выбирать жизнь Я выбрал кое-что другое Почему? Да потому Какие могут быть почему, когда ты под кайфом? Когда есть героин.



Страна: Великобритания
Студия: Channel Four Films, Figment Films, PolyGram Filmed Entertainment, The Noel Gay Motion Picture Company
Продолжительность: 01:33:50
Перевод: Русский профессиональный многоголосый закадровый, профессиональный одноголосый закадровый

Файл
Кодек: H.264
Качество: BDRip-AVC
Видео: 960x540 (16:9) at 23.976 fps, AVC at 2600 kbps
1: АС3 5.1 384 kbps - Русский профессиональный многоголосый закадровый
2: АС3 5.1 384 kbps - Русский профессиональный одноголосый закадровый (Чадов, присутствует ненормативная лексика)
3: АС3 5.1 384 kbps - Английский
Субтитры: Отсутствуют

General
Unique ID : 255080036007193862110464123345203404283 (0xBFE6A0C1BC2EF977ACE3E10077889DFB)
Complete name : C:CREATE264mod1outTrainspotting.1996.BDRip-AVC.D.P.mkv
Format : Matroska
Format version : Version 4 / Version 2
File size : 2.46 GiB
Duration : 1h 33mn
Overall bit rate : 3 756 Kbps
Movie name : Trainspotting (1996)
Encoded date : UTC 2014-03-22 20:01:55
Writing application : mkvmerge v6.8.0 ('Theme for Great Cities') 64bit built on Mar 2 2014 21:34:26
Writing library : libebml v1.3.0 + libmatroska v1.4.1
Attachment : Yes

Video
ID : 1
Format : AVC
Format/Info : Advanced Video Codec
Format profile : High@L4.1
Format settings, CABAC : Yes
Format settings, ReFrames : 8 frames
Codec ID : V_MPEG4/ISO/AVC
Duration : 1h 33mn
Bit rate : 2 529 Kbps
Width : 960 pixels
Height : 540 pixels
Display aspect ratio : 16:9
Frame rate mode : Constant
Frame rate : 23.976 fps
Color space : YUV
Chroma subsampling : 4:2:0
Bit depth : 8 bits
Scan type : Progressive
Bits/(Pixel*Frame) : 0.203
Stream size : 1.66 GiB (67%)
Title : Trainspotting (1996)
Writing library : x264 core 142 r2409+42 04be48a tMod [8-bit@4:2:0 X86_64]
Encoding settings : cabac=1 / ref=9 / deblock=1:-2:-2 / analyse=0x3:0x113 / me=umh / subme=11 / psy=1 / fade_compensate=0.00 / psy_rd=1.05:0.10 / mixed_ref=1 / me_range=32 / chroma_me=1 / trellis=2 / 8x8dct=1 / cqm=0 / deadzone=21,11 / fast_pskip=0 / chroma_qp_offset=-3 / threads=12 / lookahead_threads=3 / sliced_threads=0 / nr=0 / decimate=0 / interlaced=0 / bluray_compat=0 / constrained_intra=0 / fgo=0 / bframes=12 / b_pyramid=1 / b_adapt=2 / b_bias=0 / direct=1 / weightb=1 / open_gop=0 / weightp=2 / keyint=250 / keyint_min=23 / scenecut=40 / intra_refresh=0 / rc_lookahead=120 / rc=crf / mbtree=1 / crf=19.0000 / qcomp=0.70 / qpmin=0:0:0 / qpmax=69:69:69 / qpstep=4 / vbv_maxrate=62500 / vbv_bufsize=78125 / crf_max=0.0 / nal_hrd=none / filler=0 / ip_ratio=1.30 / aq=4:0.90 / aq-sensitivity=10.00 / aq-factor=1.00:1.00:1.00 / aq2=0 / aq3=0
Language : English
Default : Yes
Forced : No
Matrix coefficients : BT.709

Audio #1
ID : 2
Format : AC-3
Format/Info : Audio Coding 3
Mode extension : CM (complete main)
Format settings, Endianness : Big
Codec ID : A_AC3
Duration : 1h 33mn
Bit rate mode : Constant
Bit rate : 384 Kbps
Channel(s) : 6 channels
Channel positions : Front: L C R, Side: L R, LFE
Sampling rate : 48.0 KHz
Bit depth : 16 bits
Compression mode : Lossy
Stream size : 258 MiB (10%)
Title : MVO
Language : Russian
Default : Yes
Forced : No

Audio #2
ID : 3
Format : AC-3
Format/Info : Audio Coding 3
Mode extension : CM (complete main)
Format settings, Endianness : Big
Codec ID : A_AC3
Duration : 1h 33mn
Bit rate mode : Constant
Bit rate : 384 Kbps
Channel(s) : 6 channels
Channel positions : Front: L C R, Side: L R, LFE
Sampling rate : 48.0 KHz
Bit depth : 16 bits
Compression mode : Lossy
Stream size : 258 MiB (10%)
Title : VO Chadov
Language : Russian
Default : No
Forced : No

Audio #3
ID : 4
Format : AC-3
Format/Info : Audio Coding 3
Mode extension : CM (complete main)
Format settings, Endianness : Big
Codec ID : A_AC3
Duration : 1h 33mn
Bit rate mode : Constant
Bit rate : 384 Kbps
Channel(s) : 6 channels
Channel positions : Front: L C R, Side: L R, LFE
Sampling rate : 48.0 KHz
Bit depth : 16 bits
Compression mode : Lossy
Stream size : 258 MiB (10%)
Title : Original
Language : English
Default : No
Forced : No

Menu
00:00:00.000 : en:00:00:00.000
00:06:13.999 : en:00:06:13.999
00:11:31.816 : en:00:11:31.816
00:16:22.273 : en:00:16:22.273
00:20:14.296 : en:00:20:14.296
00:23:42.171 : en:00:23:42.171
00:28:28.957 : en:00:28:28.957
00:34:05.502 : en:00:34:05.502
00:38:48.409 : en:00:38:48.409
00:42:13.906 : en:00:42:13.906
00:49:58.120 : en:00:49:58.120
00:56:38.812 : en:00:56:38.812
01:01:13.753 : en:01:01:13.753
01:08:31.399 : en:01:08:31.399
01:13:27.194 : en:01:13:27.194
01:18:02.678 : en:01:18:02.678
01:25:54.608 : en:01:25:54.608
01:30:41.603 : en:01:30:41.603

x264 [info]: frame I:1051 Avg QP:16.36 size: 78107
x264 [info]: frame P:27319 Avg QP:19.45 size: 26611
x264 [info]: frame B:106637 Avg QP:21.93 size: 9582
x264 [info]: consecutive B-frames: 1.9% 1.8% 4.9% 14.6% 21.0% 39.4% 8.5% 4.8% 1.2% 0.8% 0.3% 0.4% 0.2%
x264 [info]: mb I I16..4: 10.2% 71.5% 18.3%
x264 [info]: mb P I16..4: 0.7% 9.4% 1.0% P16..4: 30.4% 37.0% 13.8% 0.0% 0.0% skip: 7.6%
x264 [info]: mb B I16..4: 0.0% 1.9% 0.1% B16..8: 34.1% 16.3% 2.8% direct: 5.8% skip:38.9% L0:39.9% L1:43.5% BI:16.6%
x264 [info]: 8x8 transform intra:85.3% inter:52.7%
x264 [info]: coded y,uvDC,uvAC intra: 92.7% 65.3% 32.2% inter: 25.3% 13.9% 3.7%
x264 [info]: i16 v,h,dc,p: 23% 15% 7% 55%
x264 [info]: i8 v,h,dc,ddl,ddr,vr,hd,vl,hu: 8% 7% 12% 10% 14% 12% 12% 11% 12%
x264 [info]: i4 v,h,dc,ddl,ddr,vr,hd,vl,hu: 12% 7% 6% 10% 16% 14% 13% 11% 12%
x264 [info]: i8c dc,h,v,p: 30% 34% 21% 16%
x264 [info]: Weighted P-Frames: Y:13.8% UV:4.8%
x264 [info]: ref P L0: 51.8% 10.2% 15.4% 7.3% 5.3% 4.1% 3.4% 2.0% 0.4% 0.0%
x264 [info]: ref B L0: 81.9% 8.0% 4.4% 2.1% 1.6% 1.3% 0.7%
x264 [info]: ref B L1: 93.8% 6.2%
x264 [info]: kb/s:2601.13



Скачать На.игле.Trainspotting.(Дэнни.Бойл).[1996.драма.комедия.криминал.BDRip-AVC].[MVO]+[VO]+[Оригинал].torrent без регистрации
Золото ЗОЛОТАЯ РАЗДАЧА! СКАЧАННОЕ НЕ ЗАСЧИТЫВАЕТСЯ! Золото
Дата: Зарегистрирован   [ Тип: внутренний ] Как тут cкачать?
MAGNET ссылка
MAGNET ссылка


Скачать .torrent

13 KB

Статус: проверено DHT
Скачан: торрент - 125 раз, раздача полностью - 28 раз
Размер: 2,46 GB
Оценка:  - (Голосов: 0)
Поблагодарили: 2
Поделиться ссылкой на эту раздачу с друзьями:
В контактеFacebookОдноклассникиTwitterLivejournalМой МирLiveinternet
 

 
Показать сообщения:    


Вы не можете начинать темы
Вы не можете отвечать на сообщения
Вы не можете редактировать свои сообщения
Вы не можете удалять свои сообщения
Вы не можете голосовать в опросах
Вы не можете прикреплять файлы к сообщениям
Вы можете скачивать файлы