Loading...
Error

Скачать Звездные войны: Эпизод 1 - Скрытая угроза / Star Wars: Episode I - The Phantom Menace (Джордж Лукас / George Lucas) [1999, фантастика, боевик, приключения, DVB] [DUB] (Локализованный видеоряд) торрент без регистрации

 
Статистика раздачи
Размер:  1,89 GB   |    Скачан:  158 раз
Сидов:  1  [  0 KB/s  ]  
 
Автор Сообщение

leon030982

[] 

Звездные войны: Эпизод 1 - Скрытая угроза / Star Wars: Episode I - The Phantom Menace


Год выпуска: 1999
Страна: США
Жанр: фантастика, боевик, приключения
Продолжительность: 02:04:40
Перевод: Профессиональный (дублированный)[Невафильм][Локализованный видеоряд]
Cубтитры: нет

Режиссер: Джордж Лукас / George Lucas

В ролях: Лиам Нисон, Юэн МакГрегор, Натали Портман, Джейк Ллойд, Пернилла Аугуст, Фрэнк Оз, Иэн МакДайармид, Оливер Форд Дэвис, Рэй Парк, Хью Куарши, Ахмед Бест, Энтони Дэниелс

Описание: Мирная и процветающая планета Набу. Торговая федерация, не желая платить налоги, вступает в прямой конфликт с королевой Амидалой, правящей на планете, что приводит к войне. На стороне королевы и республики в ней участвуют два рыцаря-джедая: учитель и ученик, Квай-Гон-Джин и Оби-Ван Кеноби...



Качество видео: DVB
Формат видео: MPG
Видео кодек: MPEG-2 Video
Аудио кодек: MPEG-1 Audio layer 2
Видео: 720x576 (4:3) @ 768x576, 25.000 fps, MPEG-2 Video, ~1940 Kbps, 0.187 bits/pixel
Аудио: 48.0 KHz, MPEG-1 Audio layer 2, 2 ch, 192 Kbps (Dual mono) [Дубляж "Невафильм"]

Цитата:

Большое спасибо [b]xfiles за предоставление записи.[/b]
General
Complete name : ...:\Star Wars Episode I - The Phantom Menace.1999.Disney.mpg
Format : MPEG-PS
File size : 1.89 GiB
Duration : 2h 4mn
Overall bit rate : 2 176 Kbps
Video
ID : 224 (0xE0)
Format : MPEG Video
Format version : Version 2
Format profile : Main@Main
Format settings, BVOP : Yes
Format settings, Matrix : Default
Format settings, GOP : M=1, N=37
Duration : 2h 4mn
Bit rate mode : Variable
Bit rate : 1 940 Kbps
Nominal bit rate : 15.0 Mbps
Width : 720 pixels
Height : 576 pixels
Display aspect ratio : 4:3
Frame rate : 25.000 fps
Standard : PAL
Color space : YUV
Chroma subsampling : 4:2:0
Bit depth : 8 bits
Scan type : Interlaced
Scan order : Top Field First
Compression mode : Lossy
Bits/(Pixel*Frame) : 0.187
Stream size : 1.69 GiB (89%)
Audio
ID : 192 (0xC0)
Format : MPEG Audio
Format version : Version 1
Format profile : Layer 2
Duration : 2h 4mn
Bit rate mode : Constant
Bit rate : 192 Kbps
Channel(s) : 2 channels
Sampling rate : 48.0 KHz
Compression mode : Lossy
Stream size : 171 MiB (9%)



Скачать Звездные.войны.Эпизод.1.-.Скрытая.угроза.Star.Wars.Episode.I.-.The.Phantom.Menace.(Джордж.Лукас.George.Lucas).[1999.фантастика.боевик.приключения.DVB].[DUB].(Локализованный.видеоряд).torrent без регистрации
Золото ЗОЛОТАЯ РАЗДАЧА! СКАЧАННОЕ НЕ ЗАСЧИТЫВАЕТСЯ! Золото
Дата: Зарегистрирован   [ Тип: внутренний ] Как тут cкачать?
MAGNET ссылка
MAGNET ссылка


Скачать .torrent

19 KB

Статус: проверено DHT
Скачан: торрент - 158 раз, раздача полностью - 97 раз
Размер: 1,89 GB
Оценка:  5 (Голосов: 2)
Поблагодарили: 3
Поделиться ссылкой на эту раздачу с друзьями:
В контактеFacebookОдноклассникиTwitterLivejournalМой МирLiveinternet
 

 
Показать сообщения:    


Вы не можете начинать темы
Вы не можете отвечать на сообщения
Вы не можете редактировать свои сообщения
Вы не можете удалять свои сообщения
Вы не можете голосовать в опросах
Вы не можете прикреплять файлы к сообщениям
Вы можете скачивать файлы