Loading...
Error

Скачать Роковая восьмерка / Hard Eight / Sydney (Пол Томас Андерсон) [1996, Драма, криминал, HDTVRip-AVC] [KinoRay][Sheikn] [MVO][AVO] торрент без регистрации

 
Статистика раздачи
Размер:  2,1 GB   |    Скачан:  99 раз

Полного источника не было: 26 минут

 
Автор Сообщение

Sheikn

[] 

Информация о фильме
Название: Роковая восьмерка / Hard Eight / Sydney
Оригинальное название: Hard Eight / Sydney
Год выхода: 1996
Жанр: Драма, криминал
Режиссер: Пол Томас Андерсон
В ролях: Филип Бейкер Холл, Джон Си Райли, Гвинет Пэлтроу, Сэмюэл Л. Джексон, Ф. Уильям Паркер, Филип Сеймур Хоффман, Натаниэль Купер, Винн Уайт, Роберт Риджли, Кэтлин Кэмпбелл, Майкл Дж. Роу, Стив Блейн, Мелора Уолтерс, Джин Ленджер, Энди Брин, Рени Брин, Ричард Гросс, Кэрри МакВей, Труман Роббинс, Эрни Андерсон, Венди Вейдман, Джейсон «Джейк» Кросс

О фильме: Джон сидел у входа в трактир и мечтал о чашечке кофе: сегодня он лишился всех своих денег. Проходивший мимо щедрый господин по имени Сидней угостил бедолагу завтраком, а в ходе беседы поведал, как можно заработать большие деньги, играя в казино. Под его чутким руководством Джон превратился в первоклассного игрока, и вместе сладкая парочка стала собирать «золотой урожай» по всей стране. Все шло хорошо до тех пор, пока Джон не влюбился в официантку по имени Клементина



Страна: США / Green Parrot, Rysher Entertainment, Trinity
Продолжительность: 01:37:39
Перевод: Профессиональный, многоголосый / Авторский, одноголосый (Андрей Гаврилов)
Дата релиза: 24.03.2014

Файл
Кодек: MPEG-4 AVC
Качество: HDTVRip(AVC)
Видео: 1024x432, 2500 Кбит/с
Звук: Русский, английский (АС3, 2 ch, 192 Кбит/с)

Семпл
Unique ID : 243551942642395039317318586382653283701 (0xB73A65DF0F3830B8B195BC4E74875D75)
Complete name : D:Rokovaja.vosmerka.1996.x264.HDTVRip.(AVC).KinoRay.(Sheikn).mkv
Format : Matroska
Format version : Version 2
File size : 2.10 GiB
Duration : 1h 37mn
Overall bit rate : 3 077 Kbps
Movie name : Hard Eight (Sydney) 1996 by GP
Encoded date : UTC 2014-03-24 17:39:54
Writing application : mkvmerge v4.0.0 ('The Stars were mine') сборка от Jun 6 2010 16:18:42
Writing library : libebml v1.0.0 + libmatroska v1.0.0
Video #1
ID : 1
Format : AVC
Format/Info : Advanced Video Codec
Format profile : High 10@L4.1
Format settings, CABAC : Yes
Format settings, ReFrames : 4 frames
Codec ID : V_MPEG4/ISO/AVC
Duration : 1h 37mn
Bit rate : 2 500 Kbps
Width : 1 024 pixels
Height : 432 pixels
Display aspect ratio : 2.40:1
Frame rate mode : Constant
Frame rate : 25.000 fps
Color space : YUV
Chroma subsampling : 4:2:0
Bit depth : 10 bits
Scan type : Progressive
Bits/(Pixel*Frame) : 0.226
Stream size : 1.66 GiB (79%)
Writing library : x264 core 130 r2273 b3065e6
Encoding settings : cabac=1 / ref=4 / deblock=1:-3:-3 / analyse=0x3:0x113 / me=umh / subme=10 / psy=1 / psy_rd=1.00:0.10 / mixed_ref=1 / me_range=30 / chroma_me=1 / trellis=2 / 8x8dct=1 / cqm=0 / deadzone=21,11 / fast_pskip=1 / chroma_qp_offset=-3 / threads=3 / lookahead_threads=1 / sliced_threads=0 / nr=0 / decimate=1 / interlaced=0 / bluray_compat=0 / constrained_intra=0 / bframes=6 / b_pyramid=2 / b_adapt=1 / b_bias=0 / direct=3 / weightb=1 / open_gop=0 / weightp=2 / keyint=240 / keyint_min=20 / scenecut=40 / intra_refresh=0 / rc_lookahead=40 / rc=2pass / mbtree=1 / bitrate=2500 / ratetol=1.0 / qcomp=0.60 / qpmin=0 / qpmax=70 / qpstep=4 / cplxblur=20.0 / qblur=0.5 / ip_ratio=1.40 / aq=1:1.00
Default : No
Forced : No
Audio #2
ID : 2
Format : AC-3
Format/Info : Audio Coding 3
Mode extension : CM (complete main)
Format settings, Endianness : Big
Codec ID : A_AC3
Duration : 1h 37mn
Bit rate mode : Constant
Bit rate : 192 Kbps
Channel(s) : 2 channels
Channel positions : Front: L R
Sampling rate : 48.0 KHz
Bit depth : 16 bits
Compression mode : Lossy
Stream size : 134 MiB (6%)
Title : Профессиональный многоголосый
Language : Russian
Default : No
Forced : Yes
Audio #3
ID : 3
Format : AC-3
Format/Info : Audio Coding 3
Mode extension : CM (complete main)
Format settings, Endianness : Big
Codec ID : A_AC3
Duration : 1h 37mn
Bit rate mode : Constant
Bit rate : 192 Kbps
Channel(s) : 2 channels
Channel positions : Front: L R
Sampling rate : 48.0 KHz
Bit depth : 16 bits
Compression mode : Lossy
Delay relative to video : 7s 0ms
Stream size : 134 MiB (6%)
Title : Авторский (Андрей Гаврилов)
Language : Russian
Default : Yes
Forced : No
Audio #4
ID : 4
Format : AC-3
Format/Info : Audio Coding 3
Mode extension : CM (complete main)
Format settings, Endianness : Big
Codec ID : A_AC3
Duration : 1h 37mn
Bit rate mode : Constant
Bit rate : 192 Kbps
Channel(s) : 2 channels
Channel positions : Front: L R
Sampling rate : 48.0 KHz
Bit depth : 16 bits
Compression mode : Lossy
Stream size : 134 MiB (6%)
Title : Английский
Language : English
Default : No
Forced : Yes
Релиз от:



Скачать Роковая.восьмерка.Hard.Eight.Sydney.(Пол.Томас.Андерсон).[1996.Драма.криминал.HDTVRip-AVC].[KinoRay][Sheikn].[MVO][AVO].torrent без регистрации
Золото ЗОЛОТАЯ РАЗДАЧА! СКАЧАННОЕ НЕ ЗАСЧИТЫВАЕТСЯ! Золото
Дата: Зарегистрирован   [ Тип: внутренний ] Как тут cкачать?
MAGNET ссылка
MAGNET ссылка


Скачать .torrent

21 KB

Статус: проверено DHT
Скачан: торрент - 99 раз, раздача полностью - 9 раз
Размер: 2,1 GB
Оценка:  - (Голосов: 0)
Поблагодарили: 2
Поделиться ссылкой на эту раздачу с друзьями:
В контактеFacebookОдноклассникиTwitterLivejournalМой МирLiveinternet
 

 
Показать сообщения:    


Вы не можете начинать темы
Вы не можете отвечать на сообщения
Вы не можете редактировать свои сообщения
Вы не можете удалять свои сообщения
Вы не можете голосовать в опросах
Вы не можете прикреплять файлы к сообщениям
Вы можете скачивать файлы