Loading...
Error

Скачать Киборг-полицейский 2 / Cyborg Cop II (Сэм Ферстенберг) [1994, фантастика, боевик, DVDRip] [AVO(Ю. Живов)] торрент без регистрации

 
Статистика раздачи
Размер:  1,46 GB   |    Скачан:  116 раз
Сидов:  1  [  0 KB/s  ]  
 
Автор Сообщение

Marsianka

[] 

Информация о фильме
Название: Киборг-полицейский 2
Оригинальное название: Cyborg Cop II
Год выхода: 1994
Жанр: фантастика, боевик
Режиссер: Сэм Ферстенберг / Sam Firstenberg
В ролях: Дэвид Брэдли, Морган Хантер, Джилл Пирс, Виктор Меллени, Дуглас Бристоу, Дэйл Каттс

О фильме:
В этом фантастическом боевике Дэвид Брэдли в роли полицейского, потерявшего напарника во время ареста жестокого убийцы (Хантер), опасного торговца наркотиками. Убийцу приговорили к смертной казни, но вскоре Брэдли прочитал в газете, что тот бежал. Начав поиски против воли начальства, он узнает, что бандит не бежал, а был вывезен секретной правительственной организацией. Оказывается, его использовали в программе производства киборгов, которые выбрали удобный момент и восстали против людей. Киборги хотели заставить людей собрать целую армию биороботов, а потом уничтожить человечество навсегда. Среди этих киборгов оказался, как вы уже, наверняка, догадались, и наш бандит. И все бы у них получилось, если бы на него не "закатил обидку" наш герой.



Страна: США
Продолжительность: 01:33:24
Перевод: Авторский (одноголосый)[Юрий Живов]

Файл
Кодек: XviD
Качество: DVDRip
Видео: 640x480 (1.33:1), 25 fps, XviD build 50 ~2042 kbps avg, 0.27 bit/pixel
Звук: 48 kHz, AC3 Dolby Digital, 2/0 (L,R) ch, ~192 kbps
DownloadsCyborg.Cop.2.avi
Format : AVI
Format/Info : Audio Video Interleave
File size : 1.46 GiB
Duration : 1h 33mn
Overall bit rate : 2 244 Kbps
Writing application : VirtualDubMod 1.5.10.3 | http://www.virtualdub-fr.org || (build 2550/release)
Writing library : VirtualDubMod build 2550/release

Video
ID : 0
Format : MPEG-4 Visual
Format profile : Advanced Simple@L5
Format settings, BVOP : 3
Format settings, QPel : No
Format settings, GMC : No warppoints
Format settings, Matrix : Default (H.263)
Codec ID : XVID
Codec ID/Hint : XviD
Duration : 1h 33mn
Bit rate : 2 042 Kbps
Width : 640 pixels
Height : 480 pixels
Display aspect ratio : 4:3
Frame rate : 25.000 fps
Color space : YUV
Chroma subsampling : 4:2:0
Bit depth : 8 bits
Scan type : Progressive
Compression mode : Lossy
Bits/(Pixel*Frame) : 0.266
Stream size : 1.33 GiB (91%)
Writing library : XviD 1.2.1 (UTC 2008-12-04)

Audio
ID : 1
Format : AC-3
Format/Info : Audio Coding 3
Mode extension : CM (complete main)
Format settings, Endianness : Big
Codec ID : 2000
Duration : 1h 33mn
Bit rate mode : Constant
Bit rate : 192 Kbps
Channel(s) : 2 channels
Channel positions : Front: L R
Sampling rate : 48.0 KHz
Bit depth : 16 bits
Compression mode : Lossy
Stream size : 128 MiB (9%)
Alignment : Split accross interleaves
Interleave, duration : 40 ms (1.00 video frame)
Interleave, preload duration : 500 ms
Релиз от:



Скачать Киборг-полицейский.2.Cyborg.Cop.II.(Сэм.Ферстенберг).[1994.фантастика.боевик.DVDRip].[AVO(Ю.Живов)].torrent без регистрации
Золото ЗОЛОТАЯ РАЗДАЧА! СКАЧАННОЕ НЕ ЗАСЧИТЫВАЕТСЯ! Золото
Дата: Зарегистрирован   [ Тип: внутренний ] Как тут cкачать?
MAGNET ссылка
MAGNET ссылка


Скачать .torrent

15 KB

Статус: проверено DHT
Скачан: торрент - 116 раз, раздача полностью - 67 раз
Размер: 1,46 GB
Оценка:  - (Голосов: 0)
Поблагодарили: 2
Поделиться ссылкой на эту раздачу с друзьями:
В контактеFacebookОдноклассникиTwitterLivejournalМой МирLiveinternet
 

 
Показать сообщения:    


Вы не можете начинать темы
Вы не можете отвечать на сообщения
Вы не можете редактировать свои сообщения
Вы не можете удалять свои сообщения
Вы не можете голосовать в опросах
Вы не можете прикреплять файлы к сообщениям
Вы можете скачивать файлы