Loading...
Error

Скачать Ромео + Джульетта / Romeo + Juliet (Баз Лурман) [1996, драма, мелодрама, триллер, экранизация, BDRip] [MVO]+[Оригинал] торрент без регистрации

 
Статистика раздачи
Размер:  2,02 GB   |    Скачан:  117 раз
Сидов:  1  [  0 KB/s  ]  
 
Автор Сообщение

Marsianka

[] 

Информация о фильме
Название: Ромео + Джульетта
Оригинальное название: Romeo + Juliet
Год выхода: 1996
Жанр: драма, мелодрама, триллер, экранизация
Режиссер: Баз Лурман
В ролях: Леонардо ДиКаприо, Клер Дэйнс, Джон Легуизамо, Хэролд Перрино, Пит Постлетуэйт, Пол Сорвино, Брайан Деннехи, Пол Радд, Вонди Куртис-Холл, Мириам Маргулис, Джесси Брэдфорд, Зак Орт, Джейми Кеннеди, Дэш Майок, Винсент Лареска, Карлос Мартин Мэнзо Оталора, Кристина Пиклз, Дайан Венора, Педро Альтамирано, Джон Стерлини, Харриет Сэнсом Харрис, Майкл Корбетт, Эдвина Мур, Куиндон Тервер, Хорхе Абрахам, Фаусто Барона, Рикардо Барона, Каталина Ботелло, Марио Симарро, Фарнесио де Берналь, Дезри, Исмаэль Эгуйярте, Родриго Эскандон, Пако Морайта, Алекс Ньюман, Кори Ньюман, Люпита Очоа, Глория Силва, Кэролин Валеро, Маргарита

О фильме:
Великая пьеса Шекспира но на современный манер. Верона стала огромным мегаполисом, Мантеги и Капулетти из дворянских кланов превратились в мафиозные, битвы на мечах теперь заменены уличными перестрелками. Но Ромео и Джульетта так и остались подростками, а божественные строки Шекспира теперь звучат из уст уличных боевиков и наркоманов. Времена меняются, люди меняются, жизнь меняется, а истинная любовь вечна.



Страна: США
Студия: 20th Century Fox Film Corporation, Bazmark Films
Продолжительность: 02:00:10
Перевод: Профессиональный многоголосый закадровый (Ren-TV)

Файл
Кодек: XviD
Качество: BDRip
Видео: XviD, 720x304 (2.37:1), 23.976 кадр/с, 1820 Кбит/с
Аудио #1: Русский, Dolby AC3, 48000 Гц, 192 Кбит/с, 2 канала (Стерео) - MVO, Ren-TV
Аудио #2: Английский, Dolby AC3, 48000 Гц, 384 Кбит/с, 6 каналов (5.1) - Оригинал
Субтитры: Нет
Семпл

Общее
Полное имя : Romeo_+_Julliet.1996.RUS.MVO.REN-TV.avi
Формат : AVI
Формат/Информация : Audio Video Interleave
Размер файла : 2,02 Гбайт
Продолжительность : 2 ч. 0 м.
Общий поток : 2404 Кбит/сек
Программа кодирования : VirtualDubMod 1.5.10.3 (build 2550/release)
Библиотека кодирования : VirtualDubMod build 2550/release

Видео
Идентификатор : 0
Формат : MPEG-4 Visual
Профиль формата : Advanced Simple@L5
Параметр BVOP формата : 2
Параметр QPel формата : Нет
Параметр GMC формата : Без точки перехода
Параметр матрицы формата : Выборочная
Режим смешивания : Сжатый битовый поток
Идентификатор кодека : XVID
Идентификатор кодека/Подсказка : XviD
Продолжительность : 2 ч. 0 м.
Битрейт : 1820 Кбит/сек
Ширина : 720 пикселей
Высота : 304 пикселя
Соотношение сторон : 2,35:1
Частота кадров : 23,976 кадра/сек
Цветовое пространство : YUV
Субдискретизация насыщенности : 4:2:0
Битовая глубина : 8 бит
Тип развёртки : Прогрессивная
Метод сжатия : С потерями
Бит/(Пиксели*Кадры) : 0.346
Размер потока : 1,53 Гбайт (76%)
Библиотека кодирования : XviD 1.2.1 (UTC 2008-12-04)

Аудио #1
Идентификатор : 1
Формат : AC-3
Формат/Информация : Audio Coding 3
Расширение режима : CM (complete main)
Параметр Endianness формата : Big
Идентификатор кодека : 2000
Продолжительность : 1 ч. 59 м.
Вид битрейта : Постоянный
Битрейт : 192 Кбит/сек
Каналы : 2 канала
Расположение каналов : Front: L R
Частота : 48,0 КГц
Битовая глубина : 16 бит
Метод сжатия : С потерями
Размер потока : 164 Мбайт (8%)
Выравнивание : Разделение по промежуткам
Продолжительность промежутка : 64 мс. (1,54 видеокадра)
Время предзагрузки промежутка : 500 мс.

Аудио #2
Идентификатор : 2
Формат : AC-3
Формат/Информация : Audio Coding 3
Расширение режима : CM (complete main)
Параметр Endianness формата : Big
Идентификатор кодека : 2000
Продолжительность : 2 ч. 0 м.
Вид битрейта : Постоянный
Битрейт : 384 Кбит/сек
Каналы : 6 каналов
Расположение каналов : Front: L C R, Side: L R, LFE
Частота : 48,0 КГц
Битовая глубина : 16 бит
Метод сжатия : С потерями
Размер потока : 330 Мбайт (16%)
Выравнивание : Разделение по промежуткам
Продолжительность промежутка : 64 мс. (1,53 видеокадра)
Время предзагрузки промежутка : 500 мс.
Релиз от: ivandubskoj



Скачать Ромео.+.Джульетта.Romeo.+.Juliet.(Баз.Лурман).[1996.драма.мелодрама.триллер.экранизация.BDRip].[MVO]+[Оригинал].torrent без регистрации
Золото ЗОЛОТАЯ РАЗДАЧА! СКАЧАННОЕ НЕ ЗАСЧИТЫВАЕТСЯ! Золото
Дата: Зарегистрирован   [ Тип: внутренний ] Как тут cкачать?
MAGNET ссылка
MAGNET ссылка


Скачать .torrent

11 KB

Статус: проверено DHT
Скачан: торрент - 117 раз, раздача полностью - 8 раз
Размер: 2,02 GB
Оценка:  - (Голосов: 0)
Поблагодарили: 1
Поделиться ссылкой на эту раздачу с друзьями:
В контактеFacebookОдноклассникиTwitterLivejournalМой МирLiveinternet
 

 
Показать сообщения:    


Вы не можете начинать темы
Вы не можете отвечать на сообщения
Вы не можете редактировать свои сообщения
Вы не можете удалять свои сообщения
Вы не можете голосовать в опросах
Вы не можете прикреплять файлы к сообщениям
Вы можете скачивать файлы