Loading...
Error

Скачать На игле/ Trainspotting (Дэнни Бойл) [1996, драма, комедия, криминал, BDRip-AVC] [MVO] торрент без регистрации

 
Статистика раздачи
Размер:  1,29 GB   |    Скачан:  114 раз
Сидов:  1  [  0 KB/s  ]  
 
Автор Сообщение

Marsianka

[] 

На игле/ Trainspotting (1996) BDRip-AVC | iPhone | P


Название: На игле
Оригинальное название: Trainspotting
Год выхода: 1996
Жанр: драма, комедия, криминал
Режиссер: Дэнни Бойл
В ролях: Юэн МакГрегор, Юэн Бремнер, Джонни Ли Миллер, Кевин МакКидд, Роберт Карлайл, Келли Макдоналд, Питер Муллан, Джеймс Космо, Айлин Николас, Сьюзэн Видлер

О фильме:
Выбирай жизнь. Выбирай работу. Выбирай карьеру. Выбирай семью. Выбирай большие телевизоры, стиральные машины, автомобили, компакт-диск плэйеры, электрические консервные ножи. Выбирай хорошее здоровье, низкий уровень холестерина и стоматологическую страховку. Выбирай недвижимость и аккуратно выплачивай взносы. Выбери свой первый дом. Выбирай своих друзей. Выбери себе курорт и шикарные чемоданы. Выбери костюм-тройку лучшей фирмы из самого дорогого материала. Выбери набор «Сделай сам», чтобы было чем заняться воскресным утром. Выбери удобный диван, чтобы развалиться на нем и смотреть отупляющее шоу. Набивай свое брюхо всякой всячиной. Выбери загнивание в конце всего и вспомни со стыдом напоследок своих дружков-подонков, которых ты заложил чтобы выкарабкаться. Выбирай будущее. Выбирай жизнь. Но зачем мне все это? Я не стал выбирать жизнь Я выбрал кое-что другое Почему? Да потому Какие могут быть почему, когда ты под кайфом? Когда есть героин



Страна: Великобритания
Студия: Channel Four Films, Figment Films, PolyGram Filmed Entertainment, The Noel Gay Motion Picture Company
Продолжительность: 01:33:50
Перевод: Русский профессиональный многоголосый закадровый

Файл
Кодек: H.264
Качество: BDRip-AVC 480p
Видео: 640x480@851x480 (16:9) at 23.976 fps, AVC at 1700 kbps
1: АAС 2.0 128 kbps - Русский профессиональный многоголосый закадровый
Субтитры: Отсутствуют

General
Complete name : C:CREATE264mod1outTrainspotting.1996 (SD).m4v
Format : MPEG-4
Codec ID : M4V
File size : 1.29 GiB
Duration : 1h 33mn
Overall bit rate mode : Variable
Overall bit rate : 1 971 Kbps
Movie name : На игле
Performer : Danny Boyle
Genre : Drama
ContentType : Short Film
Deion : Выбирай жизнь. Выбирай работу. Выбирай карьеру. Выбирай семью. Выбирай большие телевизоры, стиральные машины, автомобили, компакт-диск плэйеры, электрические консервные ножи. Выбирай хорошее здоровье, низкий уровень холестерина и ...
Recorded date : UTC 1996-02-23 08:00:00
Encoded date : UTC 2014-03-24 18:16:24
Tagged date : UTC 2014-03-24 18:17:36
Copyright : Y 1996 Miramax
Service name : AOL
Cover : Yes
Comment : «Выбери работу. Выбери свой первый дом. Выбери будущее. Только на кой чёрт тебе это надо?»
ContentRating : mpaa|R|400|

Title/Sort : Trainspotting
LongDeion : Выбирай жизнь. Выбирай работу. Выбирай карьеру. Выбирай семью. Выбирай большие телевизоры, стиральные машины, автомобили, компакт-диск плэйеры, электрические консервные ножи. Выбирай хорошее здоровье, низкий уровень холестерина и стоматологическую страховку.Выбирай недвижимость и аккуратно выплачивай взносы. Выбери свой первый дом. Выбирай своих друзей. Выбери себе курорт и шикарные чемоданы. Выбери костюм-тройку лучшей фирмы из самого дорогого материала. Выбери набор «Сделай сам», чтобы было чем заняться воскресным утром.
AppleStoreAccountType : AOL
AppleStoreCountry : Unknown Country
AppleStoreCatalogID : 451845557
Vendor : Apple:vendor_id:1996-515

Video
ID : 1
Format : AVC
Format/Info : Advanced Video Codec
Format profile : Baseline@L3.0
Format settings, CABAC : No
Format settings, ReFrames : 2 frames
Codec ID : avc1
Codec ID/Info : Advanced Video Coding
Duration : 1h 33mn
Bit rate : 1 698 Kbps
Maximum bit rate : 6 576 Kbps
Width : 640 pixels
Height : 480 pixels
Display aspect ratio : 16:9
Frame rate mode : Constant
Frame rate : 23.976 fps
Color space : YUV
Chroma subsampling : 4:2:0
Bit depth : 8 bits
Scan type : Progressive
Bits/(Pixel*Frame) : 0.231
Stream size : 1.11 GiB (86%)
Language : English
Encoded date : UTC 2014-03-24 18:16:24
Tagged date : UTC 2014-03-24 18:16:34
Matrix coefficients : BT.709

Audio #1
ID : 2
Format : AAC
Format/Info : Advanced Audio Codec
Format profile : LC
Codec ID : 40
Duration : 1h 33mn
Bit rate mode : Variable
Bit rate : 129 Kbps
Maximum bit rate : 176 Kbps
Channel(s) : 2 channels
Channel positions : Front: L R
Sampling rate : 48.0 KHz
Compression mode : Lossy
Stream size : 86.8 MiB (7%)
Title : MVO CP Digital
Language : Russian
Encoded date : UTC 2014-03-24 18:16:30
Tagged date : UTC 2014-03-24 18:16:34

Audio #2
ID : 3
Format : AAC
Format/Info : Advanced Audio Codec
Format profile : LC
Codec ID : 40
Duration : 1h 33mn
Bit rate mode : Variable
Bit rate : 132 Kbps
Maximum bit rate : 168 Kbps
Channel(s) : 2 channels
Channel positions : Front: L R
Sampling rate : 48.0 KHz
Compression mode : Lossy
Stream size : 89.8 MiB (7%)
Title : Original
Language : English
Encoded date : UTC 2014-03-24 18:16:32
Tagged date : UTC 2014-03-24 18:16:34

Sort Name: Trainspotting
XID: Apple:vendor_id:1996-515
Content ID: 451845557
Copyright: Y 1996 Miramax
ScreenWriters: Джон Ходж, Ирвин Уэлш
Producers: Эндрю МакДональд
Director: Дэнни Бойл
Cast: Юэн МакГрегор, Юэн Бремнер, Джонни Ли Миллер, Кевин МакКидд, Роберт Карлайл, Келли Макдоналд, Питер Муллан, Джеймс Космо, Айлин Николас, Сьюзэн Видлер // Ewan McGregor (Renton), Ewen Bremner (Spud), Jonny Lee Miller (Sick Boy), Kevin McKidd (Tommy), Kelly Macdonald (Diane), Peter Mullan (Swanney), James Cosmo (Mr. Renton), Eileen Nicholas (Mrs. Renton), Susan Vidler (Allison), Pauline Lynch (Lizzy), Shirley Henderson (Gail), Stuart McQuarrie (Gavin/US Tourist), Irvine Welsh (Mikey Forrester), Robert Carlyle (Begbie)
Rating: R
Long Deion: Выбирай жизнь. Выбирай работу. Выбирай карьеру. Выбирай семью. Выбирай большие телевизоры, стиральные машины, автомобили, компакт-диск плэйеры, электрические консервные ножи. Выбирай хорошее здоровье, низкий уровень холестерина и стоматологическую страховку.Выбирай недвижимость и аккуратно выплачивай взносы. Выбери свой первый дом. Выбирай своих друзей. Выбери себе курорт и шикарные чемоданы. Выбери костюм-тройку лучшей фирмы из самого дорогого материала. Выбери набор «Сделай сам», чтобы было чем заняться воскресным утром.
Deion: Выбирай жизнь. Выбирай работу. Выбирай карьеру. Выбирай семью. Выбирай большие телевизоры, стиральные машины, автомобили, компакт-диск плэйеры, электрические консервные ножи. Выбирай хорошее здоровье, низкий уровень холестерина и ...
Release Date: 1996-02-23T08:00:00Z
Genre: Drama
Artist: Danny Boyle
Name: На игле
Comments: «Выбери работу. Выбери свой первый дом. Выбери будущее. Только на кой чёрт тебе это надо?»

x264 [info]: frame I:2689 Avg QP:17.70 size: 23844
x264 [info]: frame P:132318 Avg QP:19.66 size: 8548
x264 [info]: mb I I16..4: 43.7% 0.0% 56.3%
x264 [info]: mb P I16..4: 1.1% 0.0% 1.4% P16..4: 57.5% 17.6% 8.8% 1.0% 0.4% skip:12.1%
x264 [info]: coded y,uvDC,uvAC intra: 56.9% 57.5% 32.2% inter: 42.4% 30.1% 9.8%
x264 [info]: i16 v,h,dc,p: 52% 13% 10% 26%
x264 [info]: i4 v,h,dc,ddl,ddr,vr,hd,vl,hu: 27% 13% 18% 7% 8% 9% 6% 7% 4%
x264 [info]: i8c dc,h,v,p: 59% 13% 22% 6%
x264 [info]: ref P L0: 76.0% 24.0%
x264 [info]: kb/s:1698.07



Скачать На.игле.Trainspotting.(Дэнни.Бойл).[1996.драма.комедия.криминал.BDRip-AVC].[MVO].torrent без регистрации
Золото ЗОЛОТАЯ РАЗДАЧА! СКАЧАННОЕ НЕ ЗАСЧИТЫВАЕТСЯ! Золото
Дата: Зарегистрирован   [ Тип: внутренний ] Как тут cкачать?
MAGNET ссылка
MAGNET ссылка


Скачать .torrent

13 KB

Статус: проверено DHT
Скачан: торрент - 114 раз, раздача полностью - 114 раз
Размер: 1,29 GB
Оценка:  - (Голосов: 0)
Поблагодарили: 1
Поделиться ссылкой на эту раздачу с друзьями:
В контактеFacebookОдноклассникиTwitterLivejournalМой МирLiveinternet
 

 
Показать сообщения:    


Вы не можете начинать темы
Вы не можете отвечать на сообщения
Вы не можете редактировать свои сообщения
Вы не можете удалять свои сообщения
Вы не можете голосовать в опросах
Вы не можете прикреплять файлы к сообщениям
Вы можете скачивать файлы