Loading...
Error

Скачать Белый шквал / White Squall (Ридли Скотт) [1996, драма, приключения, BDRip-AVC] [MVO]+[AVO]+[Оригинал]+[Sub]x2 торрент без регистрации

 
Статистика раздачи
Размер:  3,28 GB   |    Скачан:  103 раза
Сидов:  1  [  0 KB/s  ]  
 
Автор Сообщение

Marsianka

[] 

Информация о фильме
Название: Белый шквал
Оригинальное название: White Squall
Год выпуска: 1996
Жанр: драма, приключения
Режиссер: Ридли Скотт
В ролях: Джефф Бриджес, Кэролайн Гудолл, Джон Сэвидж, Скотт Вулф, Джереми Систо, Райан Филипп, Дэвид Лэшер, Эрик Майкл Коул, Джейсон Мэрсден, Дэвид Селби, Хулио Оскар Мечосо, Желько Иванек, Бальтазар Гетти, Итэн Эмбри, Джордан Кларк, Лизбет Маккей, Джилл Ларсон, Джеймс Медина, Джеймс Ребхорн, Николь Энн Сэмюэл, Бекки Энн Бэйкер

О фильме: На грани между Жизнью и Смертью рождается мужской характер. Осенью 1960 года парусная бригантина «Альбатрос» под руководством капитана Кристофера Шелдона ушла в кругосветное плавание. Оно могло бы стать чуть ли не круизом, если бы проходило при тихой погоде. Но мальчишки, заканчивавшие на борту «Альбатроса» обучение в Океанской академии, знали, сколь обманчивым любит прикидываться океан. Они знали, что в шторм океан перестает быть безбрежным: многометровые волны окружают небольшой кораблик в жажде раздавить его, и куда ни бросишь взгляд всюду только стена, громадная стена воды...



Страна: США
Студия: Hollywood Pictures, Largo Entertainment, Scott Free Productions
Продолжительность: 02:08:57
Перевод: Профессиональный многоголосый, авторский одноголосый

Файл
Кодек: x264
Качество: BDRip-AVC
Видео: MPEG-4 AVC, 2297 Кбит/с, 1024x438, 23.976 кадр/с
Аудио #1: Русский (AC3, 6 ch, 448 Кбит/с) / Профессиональный многоголосый
Аудио #2: Русский (AC3, 6 ch, 448 Кбит/с) / Авторский одноголосый (Андрей Гаврилов)
Аудио #3: Английский (AC3, 6 ch, 448 Кбит/с)
Субтитры: Русские, английские
Семпл
x264 [info]: frame I:1622 Avg QP:15.38 size: 61664
x264 [info]: frame P:49285 Avg QP:18.55 size: 22085
x264 [info]: frame B:134610 Avg QP:20.93 size: 7675

=============================================

Уникальный идентификатор : 202004060971342594270044355840929597136 (0x97F8912656BA5157A3C85A28270A86D0)
Полное имя : E:MCBeliy.schkval.1996.x264.BDRip(AVC)-MediaClubBeliy.schkval.1996.x264.BDRip(AVC)-MediaClub.mkv
Формат : Matroska
Версия формата : Version 4 / Version 2
Размер файла : 3,28 Гбайт
Продолжительность : 2 ч. 8 м.
Общий поток : 3643 Кбит/сек
Название фильма : -= Release MediaClub =-
Дата кодирования : UTC 2014-02-27 17:44:51
Программа кодирования : mkvmerge v6.4.1 ('Omega Point') built on Sep 16 2013 22:05:10
Библиотека кодирования : libebml v1.3.0 + libmatroska v1.4.1

Видео
Идентификатор : 1
Формат : AVC
Формат/Информация : Advanced Video Codec
Профиль формата : High@L4.1
Параметр CABAC формата : Да
Параметр ReFrames формата : 11 кадров
Идентификатор кодека : V_MPEG4/ISO/AVC
Продолжительность : 2 ч. 8 м.
Битрейт : 2297 Кбит/сек
Ширина : 1024 пикселя
Высота : 438 пикселей
Соотношение сторон : 2,35:1
Режим частоты кадров : Постоянный
Частота кадров : 23,976 кадра/сек
Цветовое пространство : YUV
Субдискретизация насыщенности : 4:2:0
Битовая глубина : 8 бит
Тип развёртки : Прогрессивная
Бит/(Пиксели*Кадры) : 0.214
Размер потока : 2,01 Гбайт (61%)
Заголовок : Beliy.schkval.1996.x264.BDRip(AVC)-neni
Библиотека кодирования : x264 core 130 r2273 b3065e6
Настройки программы : cabac=1 / ref=11 / deblock=1:-2:-2 / analyse=0x3:0x133 / me=umh / subme=11 / psy=1 / psy_rd=1.00:0.17 / mixed_ref=1 / me_range=48 / chroma_me=1 / trellis=2 / 8x8dct=1 / cqm=0 / deadzone=21,11 / fast_pskip=0 / chroma_qp_offset=-3 / threads=9 / lookahead_threads=1 / sliced_threads=0 / nr=0 / decimate=0 / interlaced=0 / bluray_compat=0 / constrained_intra=0 / bframes=8 / b_pyramid=2 / b_adapt=2 / b_bias=0 / direct=3 / weightb=1 / open_gop=0 / weightp=2 / keyint=240 / keyint_min=23 / scenecut=40 / intra_refresh=0 / rc=2pass / mbtree=0 / bitrate=2297 / ratetol=1.0 / qcomp=0.60 / qpmin=0 / qpmax=69 / qpstep=4 / cplxblur=20.0 / qblur=0.5 / ip_ratio=1.40 / pb_ratio=1.30 / aq=2:1.20
Язык : English
Default : Да
Forced : Да

Аудио #1
Идентификатор : 2
Формат : AC-3
Формат/Информация : Audio Coding 3
Расширение режима : CM (complete main)
Параметр Endianness формата : Big
Идентификатор кодека : A_AC3
Продолжительность : 2 ч. 8 м.
Вид битрейта : Постоянный
Битрейт : 448 Кбит/сек
Каналы : 6 каналов
Расположение каналов : Front: L C R, Side: L R, LFE
Частота : 48,0 КГц
Битовая глубина : 16 бит
Метод сжатия : С потерями
Размер потока : 413 Мбайт (12%)
Заголовок : MVO [AC3 5.1@448kbps]
Язык : Russian
Default : Да
Forced : Да

Аудио #2
Идентификатор : 3
Формат : AC-3
Формат/Информация : Audio Coding 3
Расширение режима : CM (complete main)
Параметр Endianness формата : Big
Идентификатор кодека : A_AC3
Продолжительность : 2 ч. 8 м.
Вид битрейта : Постоянный
Битрейт : 448 Кбит/сек
Каналы : 6 каналов
Расположение каналов : Front: L C R, Side: L R, LFE
Частота : 48,0 КГц
Битовая глубина : 16 бит
Метод сжатия : С потерями
Размер потока : 413 Мбайт (12%)
Заголовок : AVO {А. Гаврилов} [AC3 5.1@448kbps]
Язык : Russian
Default : Нет
Forced : Нет

Аудио #3
Идентификатор : 4
Формат : AC-3
Формат/Информация : Audio Coding 3
Расширение режима : CM (complete main)
Параметр Endianness формата : Big
Идентификатор кодека : A_AC3
Продолжительность : 2 ч. 8 м.
Вид битрейта : Постоянный
Битрейт : 448 Кбит/сек
Каналы : 6 каналов
Расположение каналов : Front: L C R, Side: L R, LFE
Частота : 48,0 КГц
Битовая глубина : 16 бит
Метод сжатия : С потерями
Размер потока : 413 Мбайт (12%)
Заголовок : Original
Язык : English
Default : Нет
Forced : Нет

Текст #1
Идентификатор : 5
Формат : UTF-8
Идентификатор кодека : S_TEXT/UTF8
Идентификатор кодека/Информация : UTF-8 Plain Text
Заголовок : Full
Язык : Russian
Default : Нет
Forced : Нет

Текст #2
Идентификатор : 6
Формат : UTF-8
Идентификатор кодека : S_TEXT/UTF8
Идентификатор кодека/Информация : UTF-8 Plain Text
Заголовок : Full
Язык : English
Default : Нет
Forced : Нет

Меню
00:00:00.000 : en:Program Start/Opening Credits
00:09:55.595 : en:Getting Acquainted
00:20:49.123 : en:See You on the Deck
00:33:26.171 : en:First Lesson
00:41:45.044 : en:Facing Fear
00:54:17.963 : en:All Stop on Engines
01:05:35.974 : en:Contributing to the Cause
01:17:04.870 : en:Jfk Speaks
01:29:37.998 : en:Caught Cheating
01:45:52.263 : en:Cruising Girls
01:51:59.588 : en:Party Poop
02:05:30.022 : en:Dolphins Off the Stern

За постер, огромное спасибо команде Media-Art-Club!!!
Релиз от: Rip by



Скачать Белый.шквал.White.Squall.(Ридли.Скотт).[1996.драма.приключения.BDRip-AVC].[MVO]+[AVO]+[Оригинал]+[Sub]x2.torrent без регистрации
Золото ЗОЛОТАЯ РАЗДАЧА! СКАЧАННОЕ НЕ ЗАСЧИТЫВАЕТСЯ! Золото
Дата: Зарегистрирован   [ Тип: внутренний ] Как тут cкачать?
MAGNET ссылка
MAGNET ссылка


Скачать .torrent

17 KB

Статус: проверено DHT
Скачан: торрент - 103 раз, раздача полностью - 21 раз
Размер: 3,28 GB
Оценка:  - (Голосов: 0)
Поблагодарили: 1
Поделиться ссылкой на эту раздачу с друзьями:
В контактеFacebookОдноклассникиTwitterLivejournalМой МирLiveinternet
 

 
Показать сообщения:    


Вы не можете начинать темы
Вы не можете отвечать на сообщения
Вы не можете редактировать свои сообщения
Вы не можете удалять свои сообщения
Вы не можете голосовать в опросах
Вы не можете прикреплять файлы к сообщениям
Вы можете скачивать файлы