Loading...
Error

Скачать Солдатики / Small Soldiers (Джо Данте) [1998, фантастика, семейный, BDRip-AVC] [MVO] торрент без регистрации

 
Статистика раздачи
Размер:  2,18 GB   |    Скачан:  113 раз
Сидов:  1  [  0 KB/s  ]  
 
Автор Сообщение

Marsianka

[] 

Информация о фильме
Название: Солдатики
Оригинальное название: Small Soldiers
Год выпуска: 1998
Жанр: фантастика, семейный
Режиссер: Джо Данте
В ролях: Кирстен Данст, Грегори Смит, Джей Мор, Фил Хартман, Кевин Данн, Дэвид Кросс

Описание:
Корпорация «Глоботек» задействовала в производстве игрушек военные технологии, один из разработчиков вставил в новую серию солдатиков сверхсовременные самообучающиеся микропроцессоры. В результате в магазин поступили злые десантники, запрограммированные воевать с добрыми фантастическими существами гаргонитами. Первым с ними столкнулся сын владельца маленького магазина игрушек, принявший сторону гаргонитов. Десантники, поначалу не трогавшие «гражданских лиц» вскоре перешли на совсем неигрушечные боевые действия и против людей. Мальчику, соседской девочке, а затем и их родителям пришлось вступить в бой. К ним присоединились и горе-разработчики, слишком поздно уразумевшие, каких бед они натворили. Даже мирные гаргониты, запрограммированные на то, чтобы прятаться, не выдержали и взялись за оружие.



Страна: США
Студия: Universal Pictures, DreamWorks SKG, Amblin Entertainment
Продолжительность: 01:49:47
Перевод: Профессиональный многоголосый (Позитив-Мультимедиа)

Файл
Качество: BDRip-AVC
Видео: 2396 Кбит/с, 1168x496, 23.976 кадр/с
Звук: AC3, 6 ch, 448 Кбит/с

General
Unique ID : 237126227081725453918184098650258965993 (0xB264D9A25B7A0041ABBCABCD8B0885E9)
Complete name : D:КИНОSoldatiki.(1998).BDRip-AVC.[-=DoMiNo=-].mkv
Format : Matroska
Format version : Version 2
File size : 2.18 GiB
Duration : 1h 49mn
Overall bit rate : 2 846 Kbps
Encoded date : UTC 2014-03-24 20:05:24
Writing application : mkvmerge v6.1.0 ('Old Devil') built on Mar 4 2013 09:10:42
Writing library : libebml v1.3.0 + libmatroska v1.4.0

Video
ID : 1
Format : AVC
Format/Info : Advanced Video Codec
Format profile : High@L4.1
Format settings, CABAC : Yes
Format settings, ReFrames : 12 frames
Codec ID : V_MPEG4/ISO/AVC
Duration : 1h 49mn
Bit rate : 2 396 Kbps
Width : 1 168 pixels
Height : 496 pixels
Display aspect ratio : 2.35:1
Frame rate mode : Constant
Frame rate : 23.976 fps
Color space : YUV
Chroma subsampling : 4:2:0
Bit depth : 8 bits
Scan type : Progressive
Bits/(Pixel*Frame) : 0.172
Stream size : 1.80 GiB (82%)
Writing library : x264 core 130 r2273 b3065e6
Encoding settings : cabac=1 / ref=12 / deblock=1:-3:-3 / analyse=0x3:0x133 / me=umh / subme=11 / psy=1 / psy_rd=1.00:0.20 / mixed_ref=1 / me_range=32 / chroma_me=1 / trellis=2 / 8x8dct=1 / cqm=0 / deadzone=21,11 / fast_pskip=0 / chroma_qp_offset=-6 / threads=16 / lookahead_threads=4 / sliced_threads=0 / slices=4 / nr=0 / decimate=1 / interlaced=0 / bluray_compat=0 / constrained_intra=0 / bframes=8 / b_pyramid=2 / b_adapt=2 / b_bias=0 / direct=3 / weightb=1 / open_gop=0 / weightp=2 / keyint=240 / keyint_min=23 / scenecut=40 / intra_refresh=0 / rc_lookahead=50 / rc=2pass / mbtree=1 / bitrate=2396 / ratetol=1.0 / qcomp=0.60 / qpmin=10 / qpmax=51 / qpstep=4 / cplxblur=20.0 / qblur=0.5 / ip_ratio=1.40 / aq=1:1.50
Default : Yes
Forced : No

Audio
ID : 2
Format : AC-3
Format/Info : Audio Coding 3
Mode extension : CM (complete main)
Format settings, Endianness : Big
Codec ID : A_AC3
Duration : 1h 49mn
Bit rate mode : Constant
Bit rate : 448 Kbps
Channel(s) : 6 channels
Channel positions : Front: L C R, Side: L R, LFE
Sampling rate : 48.0 KHz
Bit depth : 16 bits
Compression mode : Lossy
Stream size : 352 MiB (16%)
Default : Yes
Forced : No



Скачать Солдатики.Small.Soldiers.(Джо.Данте).[1998.фантастика.семейный.BDRip-AVC].[MVO].torrent без регистрации
Золото ЗОЛОТАЯ РАЗДАЧА! СКАЧАННОЕ НЕ ЗАСЧИТЫВАЕТСЯ! Золото
Дата: Зарегистрирован   [ Тип: внутренний ] Как тут cкачать?
MAGNET ссылка
MAGNET ссылка


Скачать .torrent

12 KB

Статус: проверено DHT
Скачан: торрент - 113 раз, раздача полностью - 84 раз
Размер: 2,18 GB
Оценка:  5 (Голосов: 2)
Поблагодарили: 5
Поделиться ссылкой на эту раздачу с друзьями:
В контактеFacebookОдноклассникиTwitterLivejournalМой МирLiveinternet
 

 
Показать сообщения:    


Вы не можете начинать темы
Вы не можете отвечать на сообщения
Вы не можете редактировать свои сообщения
Вы не можете удалять свои сообщения
Вы не можете голосовать в опросах
Вы не можете прикреплять файлы к сообщениям
Вы можете скачивать файлы