Loading...
Error

Скачать Жена лётчика / La femme de l'aviateur (Эрик Ромер) [1981, драма, мелодрама, комедия, BDRip] [DVO]+[Sub]x2 торрент без регистрации

 
Статистика раздачи
Размер:  1,75 GB   |    Скачан:  98 раз
Сидов:  1  [  0 KB/s  ]  
 
Автор Сообщение

Marsianka

[] 

Название: Жена лётчика
Оригинальное название: La femme de l'aviateur
Год выпуска: 1981
Жанр: драма, мелодрама, комедия
Выпущено: Франция, Les Films du Losange
Режиссер: Эрик Ромер
В ролях: Филипп Марло, Мари Ривьер, Анн-Лор Мёри, Матьё Карьер, Филипп Каруа, Корали Клементе, Мария Луиза Гарсия, Айде Кайо, Мари Стефен, Нил Чан

О фильме: Франсуа любит Анну. Поскольку он работает по ночам, им трудно встретиться. Однажды утром, когда он спешил к ней, он увидел Анну с её бывшим возлюбленным Кристианом. Анна не отвечает на его вопросы и оставляет Франсуа во власти своего ревнивого воображения. Преследуемый страхом быть обманутым, Франсуа решает не спать. Он бродит грустно по парижским улицам и на террасе одного кафе замечает своего соперника в обществе светловолосой женщины. Заинтригованный, он следует за ними...

Качество: BDRip
Видео: XviD, 1998 Kбит/с, 704x416
Аудио: Русский (AC3, 2 ch, 256 Кбит/с), французский (AC3, 1 ch, 192 Кбит/с)
Размер: 1.75 ГБ
Продолжительность: 01:41:56
Перевод: Профессиональный двухголосый (Видеоимпульс)
Субтитры: Русские, английские

Исходник: posodobl (Кинозал)

Сравнение с исходником

Общее
Полное имя : D:VideoGena letchika.1981.XviD.BDRipGena letchika.1981.eng.srt
Формат : SubRip
Размер файла : 82,6 Кбайт

Текст
Формат : SubRip
Метод сжатия : Без потерь

Общее
Полное имя : D:VideoGena letchika.1981.XviD.BDRipGena letchika.1981.Original.fre.ac3
Формат : AC-3
Формат/Информация : Audio Coding 3
Размер файла : 140 Мбайт
Продолжительность : 1 ч. 41 м.
Режим общего битрейта : Постоянный
Общий поток : 192 Кбит/сек

Аудио
Формат : AC-3
Формат/Информация : Audio Coding 3
Расширение режима : CM (complete main)
Параметр Endianness формата : Big
Продолжительность : 1 ч. 41 м.
Вид битрейта : Постоянный
Битрейт : 192 Кбит/сек
Каналы : 1 канал
Расположение каналов : Front: C
Частота : 48,0 КГц
Битовая глубина : 16 бит
Метод сжатия : С потерями
Размер потока : 140 Мбайт (100%)

Общее
Полное имя : D:VideoGena letchika.1981.XviD.BDRipGena letchika.1981.rus.srt
Формат : SubRip
Размер файла : 136 Кбайт

Текст
Формат : SubRip
Метод сжатия : Без потерь

Общее
Полное имя : D:VideoGena letchika.1981.XviD.BDRipGena letchika.1981.XviD.BDRip.avi
Формат : AVI
Формат/Информация : Audio Video Interleave
Размер файла : 1,61 Гбайт
Продолжительность : 1 ч. 41 м.
Общий поток : 2263 Кбит/сек
Программа кодирования : VirtualDubMod 1.5.10.2 (build 2540/release)
Библиотека кодирования : VirtualDubMod build 2540/release

Видео
Идентификатор : 0
Формат : MPEG-4 Visual
Профиль формата : Advanced Simple@L5
Параметр BVOP формата : 1
Параметр QPel формата : Нет
Параметр GMC формата : Без точки перехода
Параметр матрицы формата : Default (H.263)
Режим смешивания : Сжатый битовый поток
Идентификатор кодека : XVID
Идентификатор кодека/Подсказка : XviD
Продолжительность : 1 ч. 41 м.
Битрейт : 1998 Кбит/сек
Ширина : 704 пикселя
Высота : 416 пикселей
Соотношение сторон : 1,692
Частота кадров : 25,000 кадров/сек
Цветовое пространство : YUV
Субдискретизация насыщенности : 4:2:0
Битовая глубина : 8 бит
Тип развёртки : Прогрессивная
Метод сжатия : С потерями
Бит/(Пиксели*Кадры) : 0.273
Размер потока : 1,42 Гбайт (88%)
Библиотека кодирования : XviD 1.2.1 (UTC 2008-12-04)

Аудио
Идентификатор : 1
Формат : AC-3
Формат/Информация : Audio Coding 3
Расширение режима : CM (complete main)
Параметр Endianness формата : Big
Идентификатор кодека : 2000
Продолжительность : 1 ч. 41 м.
Вид битрейта : Постоянный
Битрейт : 256 Кбит/сек
Каналы : 2 канала
Расположение каналов : Front: L R
Частота : 48,0 КГц
Битовая глубина : 16 бит
Метод сжатия : С потерями
Размер потока : 187 Мбайт (11%)
Выравнивание : Разделение по промежуткам
Продолжительность промежутка : 40 мс. (1,00 видеокадр)
Время предзагрузки промежутка : 500 мс.



Скачать Жена.лётчика.La.femme.de.l'aviateur.(Эрик.Ромер).[1981.драма.мелодрама.комедия.BDRip].[DVO]+[Sub]x2.torrent без регистрации
Золото ЗОЛОТАЯ РАЗДАЧА! СКАЧАННОЕ НЕ ЗАСЧИТЫВАЕТСЯ! Золото
Дата: Зарегистрирован   [ Тип: внутренний ] Как тут cкачать?
MAGNET ссылка
MAGNET ссылка


Скачать .torrent

18 KB

Статус: проверено DHT
Скачан: торрент - 98 раз, раздача полностью - 1 раз
Размер: 1,75 GB
Оценка:  - (Голосов: 0)
Поблагодарили: 1
Поделиться ссылкой на эту раздачу с друзьями:
В контактеFacebookОдноклассникиTwitterLivejournalМой МирLiveinternet
 

 
Показать сообщения:    


Вы не можете начинать темы
Вы не можете отвечать на сообщения
Вы не можете редактировать свои сообщения
Вы не можете удалять свои сообщения
Вы не можете голосовать в опросах
Вы не можете прикреплять файлы к сообщениям
Вы можете скачивать файлы