Loading...
Error

Скачать Без единой улики / Without A Clue (Том Эберхардт / Thom Eberhardt) [1988, комедия, приключения, DVDRip] [DUB] + [AVO] (Л.Володарский) торрент без регистрации

 
Статистика раздачи
Размер:  1,6 GB   |    Скачан:  96 раз

Полного источника не было: 26 минут

 
Автор Сообщение

leon030982

[] 

Без единой улики / Without A Clue


Год выпуска: 1988
Страна: Великобритания
Жанр: комедия, приключения
Продолжительность: 01:47:01
Перевод #1: Профессиональный (дублированный)[Советский дубляж]
Перевод #2: Авторский (одноголосный, закадровый)[Л.Володарский]

Cубтитры: нет

Режиссер: Том Эберхардт / Thom Eberhardt

В ролях: Майкл Кейн, Бен Кингсли, Джеффри Джонс, Лизетт Энтони, Пол Фримен, Найджел Дэвенпорт, Пэт Кин, Питер Кук, Тим Киллик, Мэттью Сэвадж

Описание: Однажды, приблизительно за девять лет до описываемых в фильме событий, доктор Ватсон лечил инспектора Скотланд Ярда. Говорил он с пациентом не только о его болезни, но и о его работе, и, выслушав факты одного очень запутанного дела об убийстве и сопоставив их, помог найти убийцу. В то время Ватсон ждал назначения в штат одного очень консервативного медицинского колледжа, руководство которого не одобрило бы его дедуктивное хобби, поэтому он приписал раскрытие преступления вымышленному лицу, несуществующему детективу — Шерлоку Холмсу.
Должности Ватсон так и не получил, а Скотланд Ярд не забывал про него и его таинственного друга-детектива, постоянно обращаясь к их (точнее, к его — Ватсона) помощи в раскрытии преступлений. На досуге же Ватсон стал писать детективные рассказы о якобы их с Холмсом приключениях, которые охотно публиковал журнал «Стрэнд»..



Качество: DVDRip
Формат: AVI
Видео кодек: XviD
Аудио кодек: AC3
Видео: 640x480 (1.33:1), 23.976 fps, XviD build 63 ~1744 kbps avg, 0.24 bit/pixel
Аудио №1: 48 kHz, AC3 Dolby Digital, 2/0 (L,R) ch, ~192.00 kbps avg[DUB]
Аудио №2: 48 kHz, AC3 Dolby Digital, 2/0 (L,R) ch, ~192.00 kbps avg[AVO]
За раритетную авторскую дорожку Л.Володарского благодарим budulai-8 !
Исходный видеоряд от tеko --- Спасибо!
General
Complete name : E:\INTERNET\Without A Clue.1988.DVDRip.[DUB]+[AVO].avi
Format : AVI
Format/Info : Audio Video Interleave
File size : 1.60 GiB
Duration : 1h 47mn
Overall bit rate : 2 143 Kbps
Writing application : VirtualDubMod 1.5.10.3 (build 2550/release)
Writing library : VirtualDubMod build 2550/release

Video
ID : 0
Format : MPEG-4 Visual
Format profile : Advanced Simple@L5
Format settings, BVOP : 1
Format settings, QPel : No
Format settings, GMC : No warppoints
Format settings, Matrix : Custom
Codec ID : XVID
Codec ID/Hint : XviD
Duration : 1h 47mn
Bit rate : 1 745 Kbps
Width : 640 pixels
Height : 480 pixels
Display aspect ratio : 4:3
Frame rate : 23.976 fps
Color space : YUV
Chroma subsampling : 4:2:0
Bit depth : 8 bits
Scan type : Progressive
Compression mode : Lossy
Bits/(Pixel*Frame) : 0.237
Stream size : 1.30 GiB (81%)
Writing library : XviD 63

Audio #1
ID : 1
Format : AC-3
Format/Info : Audio Coding 3
Mode extension : CM (complete main)
Codec ID : 2000
Duration : 1h 47mn
Bit rate mode : Constant
Bit rate : 192 Kbps
Channel(s) : 2 channels
Channel positions : Front: L R
Sampling rate : 48.0 KHz
Bit depth : 16 bits
Compression mode : Lossy
Stream size : 147 MiB (9%)
Alignment : Split accross interleaves
Interleave, duration : 42 ms (1.00 video frame)
Interleave, preload duration : 500 ms

Audio #2
ID : 2
Format : AC-3
Format/Info : Audio Coding 3
Format profile : Dolby Digital
Mode extension : CM (complete main)
Codec ID : 2000
Duration : 1h 47mn
Bit rate mode : Constant
Bit rate : 192 Kbps
Channel(s) : 2 channels
Channel positions : Front: L R
Sampling rate : 48.0 KHz
Bit depth : 16 bits
Compression mode : Lossy
Stream size : 147 MiB (9%)
Alignment : Split accross interleaves
Interleave, duration : 42 ms (1.00 video frame)
Interleave, preload duration : 500 ms




Скачать Без.единой.улики.Without.A.Clue.(Том.Эберхардт.Thom.Eberhardt).[1988.комедия.приключения.DVDRip].[DUB].+.[AVO].(Л.Володарский).torrent без регистрации
Золото ЗОЛОТАЯ РАЗДАЧА! СКАЧАННОЕ НЕ ЗАСЧИТЫВАЕТСЯ! Золото
Дата: Зарегистрирован   [ Тип: внутренний ] Как тут cкачать?
MAGNET ссылка
MAGNET ссылка


Скачать .torrent

17 KB

Статус: проверено DHT
Скачан: торрент - 96 раз, раздача полностью - 7 раз
Размер: 1,6 GB
Оценка:  5 (Голосов: 1)
Поблагодарили: 2
Поделиться ссылкой на эту раздачу с друзьями:
В контактеFacebookОдноклассникиTwitterLivejournalМой МирLiveinternet
 

 
Показать сообщения:    


Вы не можете начинать темы
Вы не можете отвечать на сообщения
Вы не можете редактировать свои сообщения
Вы не можете удалять свои сообщения
Вы не можете голосовать в опросах
Вы не можете прикреплять файлы к сообщениям
Вы можете скачивать файлы