Loading...
Error

Скачать Без единой улики / Without A Clue (Том Эберхардт) [1988, комедия, криминал, детектив, DVDRip-AVC] [Dub]+[MVO]+[DVO] торрент без регистрации

 
Статистика раздачи
Размер:  2,27 GB   |    Скачан:  113 раз
Сидов:  1  [  0 KB/s  ]  
 
Автор Сообщение

Marsianka

[] 

Информация о фильме
Название: Без единой улики
Оригинальное название: Without A Clue
Год выхода: 1988
Жанр: комедия, криминал, детектив
Режиссер: Том Эберхардт
В ролях: Майкл Кейн, Бен Кингсли, Джеффри Джонс, Лизетт Энтони, Пол Фримен, Найджел Дэвенпорт, Пэт Кин, Питер Кук, Тим Киллик, Мэттью Сэвадж

О фильме: «Как появился этот самый Шерлок Холмс. »
Однажды, приблизительно за девять лет до описываемых в фильме событий, доктор Ватсон лечил инспектора Скотланд Ярда. Говорил он с пациентом не только о его болезни, но и о его работе, и, выслушав факты одного очень запутанного дела об убийстве и сопоставив их, помог найти убийцу. В то время Ватсон ждал назначения в штат одного очень консервативного медицинского колледжа, руководство которого не одобрило бы его дедуктивное хобби, поэтому он приписал раскрытие преступления вымышленному лицу, несуществующему детективу Шерлоку Холмсу.
Должности Ватсон так и не получил, а Скотланд Ярд не забывал про него и его таинственного друга-детектива, постоянно обращаясь к их (точнее, к его Ватсона) помощи в раскрытии преступлений. На досуге же Ватсон стал писать детективные рассказы о якобы их с Холмсом приключениях, которые охотно публиковал журнал «Стрэнд». И вот настал момент, когда восторженная публика потребовала предъявить ей живого Шерлока Холмса. Ватсону не оставалось ничего другого, как нанять актера Реджинальда Кинкейда для исполнения роли великого сыщика, раскрывающего все преступления, которые на самом деле раскрывал сам Ватсон. Сам же доктор теперь был при живом гении кем-то вроде помощника. Тиражи «Стрэнд» росли, популярность и слава Шерлока Холмса множилась день ото дня, но вся беда была в том, что Реджинальд Кинкейд был не только бездарным актером, но, в противоположность своему амплуа Холмсу, жутким бабником, алкоголиком и напыщенным остолопом, не способным даже на самое элементарное умозаключение...


Страна: Великобритания
Студия: Incorporated Television Company (ITC)
Продолжительность: 01:47:02
Перевод: Профессиональный (дублированный) СССР + Профессиональный (многоголосый закадровый) Позитив + Профессиональный (двухголосый закадровый) ТВ-6

Файл
Кодек: h.264
Качество: DVDRip-AVC
Видео: AVC, 1024 x 682, ~1949 kbps

Семпл
Русский (Профессиональный (дублированный) СССР): AC-3, 2 ch, 448 kbps / Русский (Профессиональный (многоголосый закадровый) Позитив / Профессиональный (двухголосый закадровый) ТВ-6) / Английский: AC-3, 2 ch, 192 kbps
Субтитры: нет
Общее
Уникальный идентификатор : 188194330444112528929900157078536975913 (0x8D94E8DDF217E80E31CDF908E823F629)
Полное имя : H:Без единой улики Without A Clue [1988 г., DVDRip-AVC]Без единой улики Without A Clue 1988 DVDRip-AVC.mkv
Формат : Matroska
Версия формата : Version 2
Размер файла : 2,27 Гбайт
Продолжительность : 1 ч. 47 м.
Режим общего битрейта : Переменный
Общий поток : 3033 Кбит/сек
Программа кодирования : Lavf52.84.0
Библиотека кодирования : Lavf52.84.0

Видео
Идентификатор : 1
Формат : AVC
Формат/Информация : Advanced Video Codec
Профиль формата : High@L3.1
Параметр CABAC формата : Да
Параметр ReFrames формата : 1 кадр
Параметр GOP формата : M=1, N=15
Идентификатор кодека : V_MPEG4/ISO/AVC
Продолжительность : 1 ч. 47 м.
Вид битрейта : Переменный
Битрейт : 1949 Кбит/сек
Максимальный битрейт : 3000 Кбит/сек
Ширина : 1024 пикселя
Высота : 682 пикселя
Соотношение сторон : 3:2
Режим частоты кадров : Постоянный
Частота кадров : 24,000 кадра/сек
Цветовое пространство : YUV
Субдискретизация насыщенности : 4:2:0
Битовая глубина : 8 бит
Тип развёртки : Прогрессивная
Бит/(Пиксели*Кадры) : 0.116
Размер потока : 1,46 Гбайт (64%)
Default : Да
Forced : Нет

Аудио #1
Идентификатор : 2
Формат : AC-3
Формат/Информация : Audio Coding 3
Расширение режима : CM (complete main)
Параметр Endianness формата : Big
Идентификатор кодека : A_AC3
Продолжительность : 1 ч. 47 м.
Вид битрейта : Постоянный
Битрейт : 448 Кбит/сек
Каналы : 2 канала
Расположение каналов : Front: L R
Частота : 48,0 КГц
Битовая глубина : 16 бит
Метод сжатия : С потерями
Задержка видео : 33 мс.
Размер потока : 343 Мбайт (15%)
Default : Да
Forced : Нет

Аудио #2
Идентификатор : 3
Формат : AC-3
Формат/Информация : Audio Coding 3
Профиль формата : Dolby Digital
Расширение режима : CM (complete main)
Параметр Endianness формата : Big
Идентификатор кодека : A_AC3
Продолжительность : 1 ч. 47 м.
Вид битрейта : Постоянный
Битрейт : 192 Кбит/сек
Каналы : 2 канала
Расположение каналов : Front: L R
Частота : 48,0 КГц
Битовая глубина : 16 бит
Метод сжатия : С потерями
Задержка видео : 33 мс.
Размер потока : 147 Мбайт (6%)
Default : Да
Forced : Нет

Аудио #3
Идентификатор : 4
Формат : AC-3
Формат/Информация : Audio Coding 3
Расширение режима : CM (complete main)
Параметр Endianness формата : Big
Идентификатор кодека : A_AC3
Продолжительность : 1 ч. 47 м.
Вид битрейта : Постоянный
Битрейт : 192 Кбит/сек
Каналы : 2 канала
Расположение каналов : Front: L R
Частота : 48,0 КГц
Битовая глубина : 16 бит
Метод сжатия : С потерями
Задержка видео : 33 мс.
Размер потока : 147 Мбайт (6%)
Default : Да
Forced : Нет

Аудио #4
Идентификатор : 5
Формат : AC-3
Формат/Информация : Audio Coding 3
Расширение режима : CM (complete main)
Параметр Endianness формата : Big
Идентификатор кодека : A_AC3
Продолжительность : 1 ч. 47 м.
Вид битрейта : Постоянный
Битрейт : 192 Кбит/сек
Каналы : 2 канала
Расположение каналов : Front: L R
Частота : 48,0 КГц
Битовая глубина : 16 бит
Метод сжатия : С потерями
Задержка видео : 33 мс.
Размер потока : 147 Мбайт (6%)
Default : Да
Forced : Нет



Скачать Без.единой.улики.Without.A.Clue.(Том.Эберхардт).[1988.комедия.криминал.детектив.DVDRip-AVC].[Dub]+[MVO]+[DVO].torrent без регистрации
Золото ЗОЛОТАЯ РАЗДАЧА! СКАЧАННОЕ НЕ ЗАСЧИТЫВАЕТСЯ! Золото
Дата: Зарегистрирован   [ Тип: внутренний ] Как тут cкачать?
MAGNET ссылка
MAGNET ссылка


Скачать .torrent

12 KB

Статус: проверено DHT
Скачан: торрент - 113 раз, раздача полностью - 2 раз
Размер: 2,27 GB
Оценка:  - (Голосов: 0)
Поблагодарили: 1
Поделиться ссылкой на эту раздачу с друзьями:
В контактеFacebookОдноклассникиTwitterLivejournalМой МирLiveinternet
 

 
Показать сообщения:    


Вы не можете начинать темы
Вы не можете отвечать на сообщения
Вы не можете редактировать свои сообщения
Вы не можете удалять свои сообщения
Вы не можете голосовать в опросах
Вы не можете прикреплять файлы к сообщениям
Вы можете скачивать файлы