Loading...
Error

Скачать Южное гостеприимство / Southern Comfort (Уолтер Хилл) [1981, триллер, драма, приключения, BDRip] [MVO]+[VO]+[Sub]x2 торрент без регистрации

 
Статистика раздачи
Размер:  1,99 GB   |    Скачан:  94 раза
Сидов:  1  [  0 KB/s  ]  
 
Автор Сообщение

Marsianka

[] 

Название: Южное гостеприимство
Оригинальное название: Southern Comfort
Год выпуска: 1981
Жанр: триллер, драма, приключения
Выпущено: США, Швейцария, Великобритания, Cinema Group Ventures, Phoenix (II)
Режиссер: Уолтер Хилл
В ролях: Кит Кэрредин, Пауэрс Бут, Фред Уорд, Франклин Силс, Т.К. Картер, Льюис Смит, Лес Лэнном, Питер Койот, Алан Аутри, Брайон Джеймс, Сонни Лэндэм, Аллан Граф, Нед Дауд, Роб Райдер, Джун Борел, Орел Борел, Дженни Спектор, Марк Савой, Фрэнк Савой

О фильме: Национальная гвардия проводит учения в болотах Луизианы, где суровых и нелюдимых местных называют «кэджуны». Гвардейцы оторвались от рутинных дел и «выпускают пар», бряцая оружием, как мальчишки. Один из них в шутку дал очередь холостыми по стоявшим на берегу. Но ответный выстрел был отнюдь не холостым. После этого начинаются кошмарные «учения» на выживание с невидимым противником, который знает каждую кочку на болоте.

Качество: BDRip
Видео: XviD, 1902 Kбит/с, 720x384
Аудио: Русский, английский (AC3, 2 ch, 192 Кбит/с)
Размер: 1.99 ГБ
Продолжительность: 01:45:56
Перевод: Профессиональный многоголосый, любительский одноголосый
Субтитры: Русские, английские

Исходник: posodobl (Кинозал)

Сравнение с исходником

Общее
Полное имя : D:VideoJugnoe gostepriimstvo.1981.XviD.BDRipJugnoe gostepriimstvo.1981.eng.srt
Формат : SubRip
Размер файла : 81,8 Кбайт

Текст
Формат : SubRip
Метод сжатия : Без потерь

Общее
Полное имя : D:VideoJugnoe gostepriimstvo.1981.XviD.BDRipJugnoe gostepriimstvo.1981.Original.eng.ac3
Формат : AC-3
Формат/Информация : Audio Coding 3
Размер файла : 146 Мбайт
Продолжительность : 1 ч. 45 м.
Режим общего битрейта : Постоянный
Общий поток : 192 Кбит/сек

Аудио
Формат : AC-3
Формат/Информация : Audio Coding 3
Расширение режима : CM (complete main)
Параметр Endianness формата : Big
Продолжительность : 1 ч. 45 м.
Вид битрейта : Постоянный
Битрейт : 192 Кбит/сек
Каналы : 2 канала
Расположение каналов : Front: L R
Частота : 48,0 КГц
Битовая глубина : 16 бит
Метод сжатия : С потерями
Размер потока : 146 Мбайт (100%)

Общее
Полное имя : D:VideoJugnoe gostepriimstvo.1981.XviD.BDRipJugnoe gostepriimstvo.1981.rus.srt
Формат : SubRip
Размер файла : 87,9 Кбайт

Текст
Формат : SubRip
Метод сжатия : Без потерь

Общее
Полное имя : D:VideoJugnoe gostepriimstvo.1981.XviD.BDRipJugnoe gostepriimstvo.1981.XviD.BDRip.avi
Формат : AVI
Формат/Информация : Audio Video Interleave
Размер файла : 1,85 Гбайт
Продолжительность : 1 ч. 45 м.
Общий поток : 2496 Кбит/сек
Программа кодирования : VirtualDubMod 1.5.10.2 (build 2540/release)
Библиотека кодирования : VirtualDubMod build 2540/release

Видео
Идентификатор : 0
Формат : MPEG-4 Visual
Профиль формата : Advanced Simple@L5
Параметр BVOP формата : 1
Параметр QPel формата : Нет
Параметр GMC формата : Без точки перехода
Параметр матрицы формата : Default (H.263)
Режим смешивания : Сжатый битовый поток
Идентификатор кодека : XVID
Идентификатор кодека/Подсказка : XviD
Продолжительность : 1 ч. 45 м.
Битрейт : 1902 Кбит/сек
Ширина : 720 пикселей
Высота : 384 пикселя
Соотношение сторон : 1,85:1
Частота кадров : 23,976 кадра/сек
Цветовое пространство : YUV
Субдискретизация насыщенности : 4:2:0
Битовая глубина : 8 бит
Тип развёртки : Прогрессивная
Метод сжатия : С потерями
Бит/(Пиксели*Кадры) : 0.287
Размер потока : 1,41 Гбайт (76%)
Библиотека кодирования : XviD 1.2.1 (UTC 2008-12-04)

Аудио #1
Идентификатор : 1
Формат : AC-3
Формат/Информация : Audio Coding 3
Расширение режима : CM (complete main)
Параметр Endianness формата : Big
Идентификатор кодека : 2000
Продолжительность : 1 ч. 45 м.
Вид битрейта : Постоянный
Битрейт : 192 Кбит/сек
Каналы : 2 канала
Расположение каналов : Front: L R
Частота : 48,0 КГц
Битовая глубина : 16 бит
Метод сжатия : С потерями
Размер потока : 145 Мбайт (8%)
Выравнивание : Разделение по промежуткам
Продолжительность промежутка : 42 мс. (1,00 видеокадр)
Время предзагрузки промежутка : 500 мс.

Аудио #2
Идентификатор : 2
Формат : AC-3
Формат/Информация : Audio Coding 3
Расширение режима : CM (complete main)
Параметр Endianness формата : Big
Идентификатор кодека : 2000
Продолжительность : 1 ч. 45 м.
Вид битрейта : Постоянный
Битрейт : 192 Кбит/сек
Каналы : 2 канала
Расположение каналов : Front: L R
Частота : 48,0 КГц
Битовая глубина : 16 бит
Метод сжатия : С потерями
Размер потока : 145 Мбайт (8%)
Выравнивание : Разделение по промежуткам
Продолжительность промежутка : 42 мс. (1,00 видеокадр)
Время предзагрузки промежутка : 500 мс.

Аудио #3
Идентификатор : 3
Формат : AC-3
Формат/Информация : Audio Coding 3
Расширение режима : CM (complete main)
Параметр Endianness формата : Big
Идентификатор кодека : 2000
Продолжительность : 1 ч. 45 м.
Вид битрейта : Постоянный
Битрейт : 192 Кбит/сек
Каналы : 2 канала
Расположение каналов : Front: L R
Частота : 48,0 КГц
Битовая глубина : 16 бит
Метод сжатия : С потерями
Размер потока : 145 Мбайт (8%)
Выравнивание : Разделение по промежуткам
Продолжительность промежутка : 42 мс. (1,00 видеокадр)
Время предзагрузки промежутка : 500 мс.



Скачать Южное.гостеприимство.Southern.Comfort.(Уолтер.Хилл).[1981.триллер.драма.приключения.BDRip].[MVO]+[VO]+[Sub]x2.torrent без регистрации
Золото ЗОЛОТАЯ РАЗДАЧА! СКАЧАННОЕ НЕ ЗАСЧИТЫВАЕТСЯ! Золото
Дата: Зарегистрирован   [ Тип: внутренний ] Как тут cкачать?
MAGNET ссылка
MAGNET ссылка


Скачать .torrent

21 KB

Статус: проверено DHT
Скачан: торрент - 94 раз, раздача полностью - 0 раз
Размер: 1,99 GB
Оценка:  - (Голосов: 0)
Поблагодарили: 2
Поделиться ссылкой на эту раздачу с друзьями:
В контактеFacebookОдноклассникиTwitterLivejournalМой МирLiveinternet
 

 
Показать сообщения:    


Вы не можете начинать темы
Вы не можете отвечать на сообщения
Вы не можете редактировать свои сообщения
Вы не можете удалять свои сообщения
Вы не можете голосовать в опросах
Вы не можете прикреплять файлы к сообщениям
Вы можете скачивать файлы