Loading...
Error

Скачать Развод по-американски / The Break-Up (Пейтон Рид) [2006, комедия, мелодрама, HDRip] [Dub] торрент без регистрации

 
Статистика раздачи
Размер:  1,46 GB   |    Скачан:  131 раз
Сидов:  10  [  0 KB/s  ]  
 
Автор Сообщение

Marsianka

[] 

Страна: США
Жанр: комедия, мелодрама
Год выпуска: 2006
Продолжительность: 01:46:27
Перевод: Профессиональный (дублированный)
Cубтитры: нет

Режиссер: Пейтон Рид /Peyton Reed
Сценарий: Джереми Гарелик / Jeremy Garelick, Джей Лавендер / Jay Lavender, Винс Вон / Vince Vaughn
Продюсер: Стюарт М. Бессер / Stuart M. Besser, Питер Биллингсли / Peter Billingsley, Джереми Гарелик / Jeremy Garelick
Оператор: Эрик Алан Эдвардс / Eric Alan Edwards
Композитор: Джон Брайон / Jon Brion
Художник: Эндрю Лоус / Andrew Laws , Дэвид Сэндфер / Дэвид Сэндфер, Кэрол Одитц / Carol Oditz
Монтаж: Дэн Лебентал / Dan Lebental, Дэвид Розенблюм / David Rosenblum

В ролях: Винс Вон / Vince Vaughn, Дженнифер Энистон / Jennifer Aniston, Джой Лорен Адамс / Joey Lauren Adams, Коул Хаузер / Cole Hauser, Джон Фавро / Jon Favreau, Джейсон Бэйтман / Jason Bateman

Роли дублировали: Юрий Деркач (Gary Grobowski ), Лариса Некипелова (Brooke Meyers), Ольга Зубкова (Addie), Сергей Быстрицкий (Lupus Grobowski), Олег Куценко (Johnny О), Андрей Казанцев (Riggleman), Людмила Ильина (Marilyn Dean), Илья Бледный (Christopher) и др.

Описание: Когда Брук и Гэри решили разойтись, все казалось простым и понятным. Не сошлись характерами. Такое бывает. И даже сплошь и рядом. Однако ни тот, ни другой не захотел торопиться и покидать насиженное местечко первым. Пауза затянулась.
С обеих сторон подтянулись друзья и доверенные лица. Началась война. В бывшем семействе. Или не в бывшем? Может быть, развод это просто способ сказать «я тебя люблю»?



Качество видео: HDRip
Формат видео: AVI
Видео кодек: XviD
Аудио кодек: AC3
Видео: 720x384 (1.88:1), 23.976 fps, XviD build 50 ~1565 kbps avg, 0.24 bit/pixel
Аудио: 48 kHz, AC3 Dolby Digital, 3/2 (L,C,R,l,r) + LFE ch, ~384.00 kbps avg

Сэмпл
D:Razvod.po-amerikanski.2006.HDRip.DUB.[YTN]_by_dexter_lex.avi
General
Complete name : D:Razvod.po-amerikanski.2006.HDRip.DUB.[YTN]_by_dexter_lex.avi
Format : AVI
Format/Info : Audio Video Interleave
File size : 1.46 GiB
Duration : 1h 46mn
Overall bit rate : 1 959 Kbps
Writing application : VirtualDubMod 1.5.10.3 | www.virtualdub-fr.org || (build 2550/release)
Writing library : VirtualDubMod build 2550/release
Video #0
ID : 0
Format : MPEG-4 Visual
Format profile : Advanced Simple@L5
Format settings, BVOP : 1
Format settings, QPel : No
Format settings, GMC : No warppoints
Format settings, Matrix : Custom
Codec ID : XVID
Codec ID/Hint : XviD
Duration : 1h 46mn
Bit rate : 1 565 Kbps
Width : 720 pixels
Height : 384 pixels
Display aspect ratio : 1.88:1
Frame rate : 23.976 fps
Color space : YUV
Chroma subsampling : 4:2:0
Bit depth : 8 bits
Scan type : Progressive
Compression mode : Lossy
Bits/(Pixel*Frame) : 0.236
Stream size : 1.16 GiB (80%)
Writing library : XviD 50
Audio #1
ID : 1
Format : AC-3
Format/Info : Audio Coding 3
Mode extension : CM (complete main)
Format settings, Endianness : Big
Codec ID : 2000
Duration : 1h 46mn
Bit rate mode : Constant
Bit rate : 384 Kbps
Channel(s) : 6 channels
Channel positions : Front: L C R, Side: L R, LFE
Sampling rate : 48.0 KHz
Bit depth : 16 bits
Compression mode : Lossy
Stream size : 292 MiB (20%)
Alignment : Split accross interleaves
Interleave, duration : 42 ms (1.00 video frame)
Interleave, preload duration : 500 ms



Скачать Развод.по-американски.The.Break-Up.(Пейтон.Рид).[2006.комедия.мелодрама.HDRip].[Dub].torrent без регистрации
Золото ЗОЛОТАЯ РАЗДАЧА! СКАЧАННОЕ НЕ ЗАСЧИТЫВАЕТСЯ! Золото
Дата: Зарегистрирован   [ Тип: внешний ] Как тут cкачать?
MAGNET ссылка
MAGNET ссылка


Скачать .torrent

15 KB

Статус: проверено DHT
Скачан: торрент - 131 раз, раздача полностью - 43 раз
Размер: 1,46 GB
Оценка:  5 (Голосов: 1)
Поблагодарили: 1
Поделиться ссылкой на эту раздачу с друзьями:
В контактеFacebookОдноклассникиTwitterLivejournalМой МирLiveinternet
 

 
Показать сообщения:    


Вы не можете начинать темы
Вы не можете отвечать на сообщения
Вы не можете редактировать свои сообщения
Вы не можете удалять свои сообщения
Вы не можете голосовать в опросах
Вы не можете прикреплять файлы к сообщениям
Вы можете скачивать файлы