Loading...
Error

Скачать Ходячие мертвецы / The Walking Dead (Сезон 04, серия 16 из 16) (Эрнест Р. Дикерсон) [2013, ужасы, триллер, драма, HDTVRip] [Sub RUS] (NotaBenoid) торрент без регистрации

 
Статистика раздачи
Размер:  347 MB   |    Скачан:  11773 раза
Сидов:  1  [  0 KB/s  ]  
 
Автор Сообщение

leon030982

[] 


Ходячие мертвецы (4-ий сезон, 16-я серия) / The Walking Dead



Год выпуска: 2013
Выпущено: США
Жанр: Драма, yжасы
Продолжительность: 00:42:39
Сезон: 04
Серия: 16
Количество серий в сезоне: 16
Перевод: Отсутствует
Субтитры: русские [NotaBenoid]
Режиссер: Эрнест Р. Дикерсон / Ernest R. Dickerson
В ролях: Эндрю Линкольн, Джон Бернтал, Сара Уэйн Кэллис, Лори Холден, Джеффри ДеМанн, Стивен Юн, Чендлер Риггз, Айрон Э. Синглтон, Норман Ридус, Мелисса Сюзанн МакБрайд

Описание: Сериал рассказывает историю жизни семьи шерифа после того, как «зомби» — эпидемия апокалипсических масштабов захлестнула земной шар. Шериф Рик Грайм путешествует со своей семьей и небольшой группой выживших в поисках безопасного места для жизни. Но постоянный страх смерти каждый день приносит тяжелые потери, заставляя героев почувствовать глубины человеческой жестокости. Рик пытается спасти свою семью, и открывает для себя, что всепоглощающий страх тех, кто выжил, может быть опаснее бессмысленных мертвецов, бродящих по земле.

Качество: HDTVRip
Формат: AVI
Видео кодек: XviD
Аудио кодек: MP3
Видео: 624x350 (1.78:1), 23.976 fps, XviD MPEG-4 ~999 kbps avg, 0.19 bit/pixel
Аудио: 48 kHz, MPEG Layer 3, 2 ch, ~128.00 kbps avg
G:\The Walking Dead S04E16 PROPER HDTVRip\The Walking Dead S04E16 PROPER HDTVRip.avi
General
Complete name : G:\The Walking Dead S04E16 PROPER HDTVRip\The Walking Dead S04E16 PROPER HDTVRip.avi
Format : AVI
Format/Info : Audio Video Interleave
File size : 347 MiB
Duration : 42mn 39s
Overall bit rate : 1 137 Kbps
Writing library : VirtualDub build 35491/release
Video #0
ID : 0
Format : MPEG-4 Visual
Format profile : Advanced Simple@L5
Format settings, BVOP : 2
Format settings, QPel : No
Format settings, GMC : No warppoints
Format settings, Matrix : Default (H.263)
Muxing mode : Packed bitstream
Codec ID : XVID
Codec ID/Hint : XviD
Duration : 42mn 39s
Bit rate : 1 000 Kbps
Width : 624 pixels
Height : 350 pixels
Display aspect ratio : 16:9
Frame rate : 23.976 fps
Color space : YUV
Chroma subsampling : 4:2:0
Bit depth : 8 bits
Scan type : Progressive
Compression mode : Lossy
Bits/(Pixel*Frame) : 0.191
Stream size : 305 MiB (88%)
Writing library : XviD 64
Audio #1
ID : 1
Format : MPEG Audio
Format version : Version 1
Format profile : Layer 3
Mode : Joint stereo
Mode extension : MS Stereo
Codec ID : 55
Codec ID/Hint : MP3
Duration : 42mn 39s
Bit rate mode : Constant
Bit rate : 128 Kbps
Channel(s) : 2 channels
Sampling rate : 48.0 KHz
Compression mode : Lossy
Stream size : 39.1 MiB (11%)
Alignment : Split accross interleaves
Interleave, duration : 42 ms (1.00 video frame)
Interleave, preload duration : 500 ms



Скачать Ходячие.мертвецы.The.Walking.Dead.(Сезон.04.серия.16.из.16).(Эрнест.Р.Дикерсон).[2013.ужасы.триллер.драма.HDTVRip].[Sub.RUS].(NotaBenoid).torrent без регистрации
Золото ЗОЛОТАЯ РАЗДАЧА! СКАЧАННОЕ НЕ ЗАСЧИТЫВАЕТСЯ! Золото
Дата: Зарегистрирован   [ Тип: внутренний ] Как тут cкачать?
MAGNET ссылка
MAGNET ссылка


Скачать .torrent

14 KB

Статус: проверено DHT
Скачан: торрент - 11773 раз, раздача полностью - 11 раз
Размер: 347 MB
Оценка:  - (Голосов: 0)
Поблагодарили: 0
Поделиться ссылкой на эту раздачу с друзьями:
В контактеFacebookОдноклассникиTwitterLivejournalМой МирLiveinternet
 

 
Показать сообщения:    


Вы не можете начинать темы
Вы не можете отвечать на сообщения
Вы не можете редактировать свои сообщения
Вы не можете удалять свои сообщения
Вы не можете голосовать в опросах
Вы не можете прикреплять файлы к сообщениям
Вы можете скачивать файлы