Loading...
Error

Скачать Сотня / The 100 (сезоны 01-02) (Дин Уайт, Джон Беринг, Милан Чейлов) [2014-2015, фантастика, WEB-DLRip] [MVO (LostFilm)]+[Eng] торрент без регистрации

 
Статистика раздачи
Размер:  17,33 GB   |    Скачан:  233 раза

Полного источника не было: 23 минуты

 
Автор Сообщение

МихаНЕзатор

[] 

Информация о фильме
Название: Сотня
Оригинальное название: The Hundred
Год выхода: 2014
Жанр: Фантастика, экранизация
Режиссер: Дин Уайт, Джон Беринг, Милан Чейлов

В ролях: Элиза Тейлор, Мари Авгеропулос, Сачин Сахель, Линдси Морган, Женевьев Бюкнер, Ричард Хэрмон, Джарод Джозеф, Челси Рейст, Крис Браунинг, Джош Ссеттуба

О фильме: Экранизация одноименного романа Касс Морган. После ядерной войны прошло 97 лет. Остатки человечества, укрывшиеся на космической станции «Ковчег», страдают от нехватки ресурсов, необходимых для дальнейшего выживания. Правительство исчерпало все меры, включая жесткое ограничение рождаемости, но ситуация продолжает ухудшаться. Остается единственный выход — попробовать вернуться на Землю. Чтобы узнать, пригодна ли для жизни покинутая давным-давно планета, правительство отправляет туда сотню молодых правонарушителей, в числе которых оказываются дети высокопоставленных чиновников и других известных на «Ковчеге» людей. Теперь судьба всего человечества зависит от этой группы «изгнанников»...

Релиз от:

Страна: США
Студия: Bonanza Productions, Alloy Entertainment, Warner Bros. Television
Продолжительность: 21 х ~ 00:42:00
Перевод: Профессиональный (многоголосый, закадровый) [LostFilm]

Файл
Формат: AVI
Качество: WEB-DLRip
Видео: XviD, 720x400, ~1800 kbps, 23.976 fps
Аудио: AC3, 48.0 KHz, 6 ch, 192 Kbps
Субтитры: Нет

АНОНСЫ ПОПУЛЯРНЫХ РАЗДАЧ


Торент обновлён, добавлена 16 серия второго сезона!

Сезон 1
01. Пилот
02. Выжить на Земле
03. Умереть на Земле
04. Закон Мерфи
05. Последний луч сумерек
06. Ради сестры
07. Под давлением
08. Однодневное путешествие
09. День единства
10. Я стал Смертью
11. Тишина
12. Мы - земляне: часть 1
13. Мы - земляне: часть 2
Сезон 2
01. 48
02. Суровая Вэзер
03. Последствия
04. Долгих лет жизни
05. Эксперименты над людьми
06. Туман войны
07. В самую бездну
08. Космический странник
09. Помни меня (Remember Me)
10. Выживает сильнейший (Survival of the Fittest)
11. Смертельный удар (Coup de Grâce)
12. Рубикон (Rubicon)
13. Воскрешение (Resurrection)
14. Защитник лжи (Bodyguard of Lies)
15. Кровь за кровь. Часть 1 (Blood Must Have Blood: Part 1)
16. Кровь за кровь. Часть 2 (Blood Must Have Blood: Part 2)
Complete name : E:KinoSotnya.XviD.WEB-DLRip.LF.GeneralfilmSotnya.S01.2014.XviD.WEB-DLRip.LF.GeneralfilmSotnya.s01e03.2014.XviD.WEB-DLRip.LF.Generalfilm.avi
Format : AVI
Format/Info : Audio Video Interleave
File size : 609 MiB
Duration : 42mn 24s
Overall bit rate : 2 007 Kbps
Writing application : VirtualDubMod 1.5.10.3 | www.virtualdub-fr.org || (build 2550/release)
Writing library : VirtualDubMod build 2550/release

Video
ID : 0
Format : MPEG-4 Visual
Format profile : Advanced Simple@L5
Format settings, BVOP : 2
Format settings, QPel : No
Format settings, GMC : No warppoints
Format settings, Matrix : Default (H.263)
Codec ID : XVID
Codec ID/Hint : XviD
Duration : 42mn 24s
Bit rate : 1 806 Kbps
Width : 720 pixels
Height : 400 pixels
Display aspect ratio : 16:9
Frame rate : 23.976 fps
Color space : YUV
Chroma subsampling : 4:2:0
Bit depth : 8 bits
Scan type : Progressive
Compression mode : Lossy
Bits/(Pixel*Frame) : 0.262
Stream size : 548 MiB (90%)
Writing library : XviD 1.2.1 (UTC 2008-12-04)

Audio
ID : 1
Format : AC-3
Format/Info : Audio Coding 3
Mode extension : CM (complete main)
Format settings, Endianness : Big
Codec ID : 2000
Duration : 42mn 24s
Bit rate mode : Constant
Bit rate : 192 Kbps
Channel count : 6 channels
Channel positions : Front: L C R, Side: L R, LFE
Sampling rate : 48.0 KHz
Bit depth : 16 bits
Compression mode : Lossy
Stream size : 58.2 MiB (10%)
Alignment : Split accross interleaves
Interleave, duration : 42 ms (1.00 video frame)
Interleave, preload duration : 500 ms



Скачать Сотня.The.100.(сезоны.01-02).(Дин.Уайт.Джон.Беринг.Милан.Чейлов).[2014-2015.фантастика.WEB-DLRip].[MVO.(LostFilm)]+[Eng].torrent без регистрации
Золото ЗОЛОТАЯ РАЗДАЧА! СКАЧАННОЕ НЕ ЗАСЧИТЫВАЕТСЯ! Золото
Дата: Зарегистрирован   [ Тип: внутренний ] Как тут cкачать?
MAGNET ссылка
MAGNET ссылка


Скачать .torrent

48 KB

Статус: проверено DHT
Скачан: торрент - 233 раз, раздача полностью - 144 раз
Размер: 17,33 GB
Оценка:  5 (Голосов: 2)
Поблагодарили: 5
Поделиться ссылкой на эту раздачу с друзьями:
В контактеFacebookОдноклассникиTwitterLivejournalМой МирLiveinternet
 

 

Bonifacij

[] 

Феминистская хрень
 
Показать сообщения:    


Вы не можете начинать темы
Вы не можете отвечать на сообщения
Вы не можете редактировать свои сообщения
Вы не можете удалять свои сообщения
Вы не можете голосовать в опросах
Вы не можете прикреплять файлы к сообщениям
Вы можете скачивать файлы