Loading...
Error

Скачать Придурки на экзаменах / Les Sous-doues (Клод Зиди) [1980, комедия, BDRip-AVC] [MVO] торрент без регистрации

 
Статистика раздачи
Размер:  1,46 GB   |    Скачан:  108 раз
Сидов:  1  [  0 KB/s  ]  
 
Автор Сообщение

Marsianka

[] 

Информация о фильме
Название: Придурки на экзаменах
Оригинальное название: Les Sous-doues
Год выхода: 1980
Жанр: комедия
Режиссер: Клод Зиди
В ролях: Мишель Галабрю, Мария Паком, Даниель Отой, Филипп Таччини, Тони Маршалл, Юбер Дешам, Раймон Бюссьер, Жорж Андерсон, Фёдор Аткин, Анри Атталь

О фильме:
Краткое описаЛегкая развлекательная комедия о старшеклассниках, хотя уже по названию ясно, что они представляют. Директриса запрещает курить в туалете и имеет от этой комнаты свой ключ, чтобы врываться и выгонять нарушителей. Один из курильщиков подсоединил замочную скважину к электрическому выключателю. Когда директриса вставила ключ, он нажал на выключатель, и бедную женщину начало бить током. Выключил ее отпустило. Вот такого рода шуточки заполняют почти все экранное время. Трудно воспитывать таких учеников, но особенно тяжело читать лекции о Людовике XV. Естественно отомстить она хочет на экзаменах, но все напрасно веселые лоботрясы сдают все, благодаря хитрым уловкам. Спустя десять лет они встречаются...ние фильма...



Страна: Франция, Films 7
Продолжительность: 01:32:03
Перевод: Профессиональный многоголосый
Дата релиза: 29.04.2014

Файл
Кодек: H.264
Качество: BDRip (AVC)
Видео: MPEG-4 AVC, 1879 Кбит/с, 956x576
Звук: Русский (AC3, 6 ch, 384 Кбит/с)
Общее
Уникальный идентификатор : 203091545931064925234228226335377354583 (0x98CA024C412FA3DD8BE14DA932166F57)
Полное имя : D:фильмыPridurki na ekzamenah.1980.x264.BDRip.(AVC).ExKinoRay.mkv
Формат : Matroska
Размер файла : 1,46 Гбайт
Продолжительность : 1 ч. 32 м.
Общий поток : 2265 Кбит/сек
Название фильма : Pridurki na ekzamenah.1980.x264.BDRip.(AVC).ExKinoRay
Дата кодирования : UTC 2014-03-29 20:42:12
Программа кодирования : mkvmerge v4.0.0 ('The Stars were mine') сборка от Jun 6 2010 16:18:42
Библиотека кодирования : libebml v1.0.0 + libmatroska v1.0.0

Видео
Идентификатор : 1
Формат : AVC
Формат/Информация : Advanced Video Codec
Профиль формата : High@L4.1
Параметр CABAC формата : Да
Параметр ReFrames формата : 8 кадров
Параметры GOP формата : M=9, N=24
Идентификатор кодека : V_MPEG4/ISO/AVC
Продолжительность : 1 ч. 32 м.
Битрейт : 1879 Кбит/сек
Ширина : 956 пикс.
Высота : 576 пикс.
Соотношение сторон : 1,660
Частота кадров : 24,000 кадр/сек
Цветовое пространство : YUV
Подвыборка цветности : 4:2:0
Битовая глубина : 8 бит
Тип развёртки : Прогрессивная
Бит/(Пиксели*Кадры) : 0.142
Размер потока : 1,18 Гбайт (81%)
Заголовок : Rip by Enigma-Vladislav71
Библиотека кодирования : x264 core 125 r2208 d9d2288
Настройки программы : cabac=1 / ref=8 / deblock=1:-2:-2 / analyse=0x3:0x133 / me=umh / subme=9 / psy=1 / psy_rd=1.00:0.00 / mixed_ref=1 / me_range=32 / chroma_me=1 / trellis=2 / 8x8dct=1 / cqm=0 / deadzone=21,11 / fast_pskip=0 / chroma_qp_offset=-2 / threads=3 / lookahead_threads=1 / sliced_threads=0 / nr=0 / decimate=0 / interlaced=0 / bluray_compat=0 / constrained_intra=0 / bframes=8 / b_pyramid=2 / b_adapt=2 / b_bias=0 / direct=3 / weightb=1 / open_gop=0 / weightp=2 / keyint=240 / keyint_min=23 / scenecut=40 / intra_refresh=0 / rc=2pass / mbtree=0 / bitrate=1879 / ratetol=1.0 / qcomp=0.60 / qpmin=10 / qpmax=51 / qpstep=4 / cplxblur=20.0 / qblur=0.5 / ip_ratio=1.40 / pb_ratio=1.30 / aq=1:1.00
Язык : English

Аудио
Идентификатор : 2
Формат : AC-3
Формат/Информация : Audio Coding 3
Расширение режима : CM (complete main)
Идентификатор кодека : A_AC3
Продолжительность : 1 ч. 32 м.
Вид битрейта : Постоянный
Битрейт : 384 Кбит/сек
Каналы : 6 каналов
Расположение каналов : Front: L C R, Side: L R, LFE
Частота : 48,0 КГц
Битовая глубина : 16 бит
Метод сжатия : С потерями
Размер потока : 253 Мбайт (17%)
Язык : Russian
Релиз от:

Авторы релиза:



Скачать Придурки.на.экзаменах.Les.Sous-doues.(Клод.Зиди).[1980.комедия.BDRip-AVC].[MVO].torrent без регистрации
Золото ЗОЛОТАЯ РАЗДАЧА! СКАЧАННОЕ НЕ ЗАСЧИТЫВАЕТСЯ! Золото
Дата: Зарегистрирован   [ Тип: внутренний ] Как тут cкачать?
MAGNET ссылка
MAGNET ссылка


Скачать .torrent

15 KB

Статус: проверено DHT
Скачан: торрент - 108 раз, раздача полностью - 4 раз
Размер: 1,46 GB
Оценка:  - (Голосов: 0)
Поблагодарили: 0
Поделиться ссылкой на эту раздачу с друзьями:
В контактеFacebookОдноклассникиTwitterLivejournalМой МирLiveinternet
 

 
Показать сообщения:    


Вы не можете начинать темы
Вы не можете отвечать на сообщения
Вы не можете редактировать свои сообщения
Вы не можете удалять свои сообщения
Вы не можете голосовать в опросах
Вы не можете прикреплять файлы к сообщениям
Вы можете скачивать файлы