Loading...
Error

Скачать Динго / Легенда джаза / Dingo (Рольф де Хеер) [1991, драма, киноджаз, независимое кино, DVDRip] [MVO] торрент без регистрации

 
Статистика раздачи
Размер:  2,03 GB   |    Скачан:  96 раз
Сидов:  1  [  0 KB/s  ]  
 
Автор Сообщение

Marsianka

[] 

Год выпуска: 1991
Страна: Австралия
Жанр: драма, киноджаз, независимое кино
Продолжительность: 01:49:52
Перевод: Профессиональный (многоголосый, закадровый) REN-TV
Русские субтитры: нет

Режиссер: Рольф де Хеер / Rolf de Heer

В ролях: Майлс Дэвис, Колин Фрилс, Бернар Фрессон, Бернадетт Лафон.

Описание:
Единственная кинороль одного из лучших в мире джазменов.
Юноше из западной Австралии посчастливилось услышать музыку в исполнении легенды джаза Билли Кросса. Это событие изменило его жизнь. Он самостоятельно научился играть на трубе, чтобы осуществить свою мечту: встретиться с Билли Кроссом и сыграть с ним.
Маленький мальчик жил в городке на севере Австралии, когда однажды случилось чудо: в двух шагах от его дома приземлился самолет, и из него вышел джазмен Билли Кросс. Он играл и покорил сердце своей музыкой Джона Андерсона, так звали мальчика. Он вырос и сколотил группу, назвал ее "Dingo Dusters". Шли годы, Джон все чаще замыкался в себе, писал Билли Кроссу письма, на которые ни разу не приходило ответа, и мечтал лишь об одном: когда-нибудь съездить в Париж, где жил Билли, и сыграть вместе с кумиром всей своей жизни...
Музыка: Майлз Дэвис, Мишель Легран.



Качество: DVDRip
Формат: AVI
Видео кодек: DivX
Аудио кодек: AC3
Video: anamorph 16:9, 700x576@1008x576, 25 fps, DivX Codec 6.8.5 ~2002 kbps avg, 0.20 bit/pixel
Audio #1: English, 48 kHz, AC3 Dolby Digital, 3/2 (L,C,R,l,r) + LFE ch, ~448 kbps
Audio #2: Russian, 48 kHz, AC3 Dolby Digital, 2/0 (L,R) ch, ~192 kbps
General
Complete name : Dingo (Rolf de Heer) - 1991.avi
Format : AVI
Format/Info : Audio Video Interleave
Format profile : OpenDML
File size : 2.03 GiB
Duration : 1h 49mn
Overall bit rate : 2 650 Kbps
Writing application : VirtualDubMod 1.5.10.1 (build 2366/release)
Writing library : VirtualDubMod build 2366/release

Video
ID : 0
Format : MPEG-4 Visual
Format settings, BVOP : 1
Format settings, QPel : No
Format settings, GMC : No warppoints
Format settings, Matrix : Default (H.263)
Codec ID : DX50
Codec ID/Hint : DivX 5
Duration : 1h 49mn
Bit rate : 1 991 Kbps
Width : 700 pixels
Height : 576 pixels
Display aspect ratio : 16:9
Frame rate : 25.000 fps
Color space : YUV
Chroma subsampling : 4:2:0
Bit depth : 8 bits
Scan type : Progressive
Compression mode : Lossy
Bits/(Pixel*Frame) : 0.197
Stream size : 1.53 GiB (75%)
Writing library : DivX 6.8.5 (UTC 2009-08-20)

Audio #1
ID : 1
Format : AC-3
Format/Info : Audio Coding 3
Mode extension : CM (complete main)
Codec ID : 2000
Duration : 1h 49mn
Bit rate mode : Constant
Bit rate : 448 Kbps
Channel(s) : 6 channels
Channel positions : Front: L C R, Side: L R, LFE
Sampling rate : 48.0 KHz
Bit depth : 16 bits
Compression mode : Lossy
Stream size : 352 MiB (17%)
Alignment : Split accross interleaves
Interleave, duration : 40 ms (1.00 video frame)
Interleave, preload duration : 500 ms
Title : English

Audio #2
ID : 2
Format : AC-3
Format/Info : Audio Coding 3
Mode extension : CM (complete main)
Codec ID : 2000
Duration : 1h 49mn
Bit rate mode : Constant
Bit rate : 192 Kbps
Channel(s) : 2 channels
Channel positions : Front: L R
Sampling rate : 48.0 KHz
Bit depth : 16 bits
Compression mode : Lossy
Stream size : 151 MiB (7%)
Alignment : Split accross interleaves
Interleave, duration : 40 ms (1.00 video frame)
Interleave, preload duration : 500 ms
Title : Russian














Скачать Динго.Легенда.джаза.Dingo.(Рольф.де.Хеер).[1991.драма.киноджаз.независимое.кино.DVDRip].[MVO].torrent без регистрации
Золото ЗОЛОТАЯ РАЗДАЧА! СКАЧАННОЕ НЕ ЗАСЧИТЫВАЕТСЯ! Золото
Дата: Зарегистрирован   [ Тип: внутренний ] Как тут cкачать?
MAGNET ссылка
MAGNET ссылка


Скачать .torrent

11 KB

Статус: проверено DHT
Скачан: торрент - 96 раз, раздача полностью - 1 раз
Размер: 2,03 GB
Оценка:  - (Голосов: 0)
Поблагодарили: 0
Поделиться ссылкой на эту раздачу с друзьями:
В контактеFacebookОдноклассникиTwitterLivejournalМой МирLiveinternet
 

 
Показать сообщения:    


Вы не можете начинать темы
Вы не можете отвечать на сообщения
Вы не можете редактировать свои сообщения
Вы не можете удалять свои сообщения
Вы не можете голосовать в опросах
Вы не можете прикреплять файлы к сообщениям
Вы можете скачивать файлы