Loading...
Error

Скачать Жил был мошенник / There Was a Crooked Man... (Джозеф Л. Манкевич) [1970, вестерн, комедия, DVDRip-AVC] [MVO] торрент без регистрации

 
Статистика раздачи
Размер:  2,05 GB   |    Скачан:  113 раз
Сидов:  1  [  0 KB/s  ]  
 
Автор Сообщение

Marsianka

[] 

Информация о фильме
Название: Жил был мошенник
Оригинальное название: There Was a Crooked Man...
Год выхода: 1970
Жанр: вестерн, комедия
Режиссер: Джозеф Л. Манкевич / Joseph L. Mankiewicz
В ролях: Роберт Бентон /Robert Benton/, Хэрри Стрэдлинг-младший /Harry Stradling, Jr./, Уоррен Оутс /Warren Oates/, Берджесс Мередит /Burgess Meredith/, Хенри Фонда /Henry Fonda/, Хьюм Кронин /Hume Cronyn/, Артур О'Коннелл /Arthur O'Connell/

О фильме:
Вестерн отличается закрученным сценарием, и не поймешь, то ли это комедия, то ли убедительная драма. Керк Даглас, Хенри Фонда, Хьюм Кронин, Уоррен Оутс и Берджесс Мередит не в том виде, в котором зридели привыкли видеть этих якрких персонажей, да собрались-то они вместе в душной, грязной тюрьме в пустыне. Этот тот тип остросюжетной драмы, когда ни актер, ни режиссер, похоже, не верют ни сценарию, и в характеры персонажей. Даглась - жулик из названия фильма украл 500000 долларов у Артура О Коннелла, а тот его, как говориться, застал со спущенными штанами в борделе в прямом сысле слова (наверное узнал через дырочки в трусах).

Фонда играет справедливого, почти святого шерифа, принявшегося проповедовать заключенным, как попасть Царство Божье, только плевать все хотели на святые истины, когда Даглас устраивает бунт и побег... (Иванов М.)


Страна: США
Студия: Warner Bros.
Продолжительность: 01:58:19.680
Перевод: Профессиональный (многоголосый, закадровый) Петербург-5 канал

Файл
Кодек: h.264
Качество: DVDRip-AVC
Видео: 704x416 (2.40:1) @ 1000x416 (анаморф), 25.000 fps, AVC, ~2157 Kbps, 0.295 bits/pixel
Русский, 48.0 KHz, AC3, 1 ch, 128 Kbps
Английский, 48.0 KHz, AC3, 2 ch, 192 Kbps (двойное моно)
Субтитры: нет
Общее
Уникальный идентификатор : 239467701895868174780195841963684791829 (0xB427CD416B9A103FB819C55E06FC0615)
Полное имя : D:FilmsZhil_bil_moshennik.1970.DVDRip-AVC.mkv
Формат : Matroska
Версия формата : Version 4 / Version 2
Размер файла : 2,05 Гбайт
Продолжительность : 1 ч. 58 м.
Общий поток : 2479 Кбит/сек
Дата кодирования : UTC 2014-03-30 17:11:51
Программа кодирования : mkvmerge v6.8.0 ('Theme for Great Cities') 64bit built on Mar 2 2014 21:34:26
Библиотека кодирования : libebml v1.3.0 + libmatroska v1.4.1

Видео
Идентификатор : 1
Формат : AVC
Формат/Информация : Advanced Video Codec
Профиль формата : High@L4.1
Параметр CABAC формата : Да
Параметр ReFrames формата : 16 кадров
Идентификатор кодека : V_MPEG4/ISO/AVC
Продолжительность : 1 ч. 58 м.
Битрейт : 2157 Кбит/сек
Ширина : 704 пикселя
Высота : 416 пикселей
Соотношение сторон : 2,40:1
Режим частоты кадров : Постоянный
Частота кадров : 25,000 кадров/сек
Цветовое пространство : YUV
Субдискретизация насыщенности : 4:2:0
Битовая глубина : 8 бит
Тип развёртки : Прогрессивная
Бит/(Пиксели*Кадры) : 0.295
Размер потока : 1,74 Гбайт (85%)
Библиотека кодирования : x264 core 138 r2358 9e941d1
Настройки программы : cabac=1 / ref=16 / deblock=1:0:0 / analyse=0x3:0x133 / me=umh / subme=10 / psy=1 / psy_rd=1.10:0.10 / mixed_ref=1 / me_range=32 / chroma_me=1 / trellis=2 / 8x8dct=1 / cqm=0 / deadzone=21,11 / fast_pskip=0 / chroma_qp_offset=-6 / threads=8 / lookahead_threads=1 / sliced_threads=0 / nr=0 / decimate=0 / interlaced=0 / bluray_compat=0 / constrained_intra=0 / bframes=8 / b_pyramid=2 / b_adapt=2 / b_bias=0 / direct=3 / weightb=1 / open_gop=0 / weightp=2 / keyint=250 / keyint_min=25 / scenecut=60 / intra_refresh=0 / rc_lookahead=60 / rc=2pass / mbtree=0 / bitrate=2157 / ratetol=1.0 / qcomp=0.60 / qpmin=0 / qpmax=69 / qpstep=4 / cplxblur=20.0 / qblur=0.5 / vbv_maxrate=50000 / vbv_bufsize=62500 / nal_hrd=none / ip_ratio=1.40 / pb_ratio=1.30 / aq=2:1.00
Default : Нет
Forced : Нет
Коэффициенты матрицы : BT.601

Аудио #1
Идентификатор : 2
Формат : AC-3
Формат/Информация : Audio Coding 3
Расширение режима : CM (complete main)
Параметр Endianness формата : Big
Идентификатор кодека : A_AC3
Продолжительность : 1 ч. 58 м.
Вид битрейта : Постоянный
Битрейт : 128 Кбит/сек
Каналы : 1 канал
Расположение каналов : Front: C
Частота : 48,0 КГц
Битовая глубина : 16 бит
Метод сжатия : С потерями
Размер потока : 108 Мбайт (5%)
Язык : Russian
Default : Да
Forced : Нет

Аудио #2
Идентификатор : 3
Формат : AC-3
Формат/Информация : Audio Coding 3
Расширение режима : CM (complete main)
Параметр Endianness формата : Big
Идентификатор кодека : A_AC3
Продолжительность : 1 ч. 58 м.
Вид битрейта : Постоянный
Битрейт : 192 Кбит/сек
Каналы : 2 канала
Расположение каналов : Front: L R
Частота : 48,0 КГц
Битовая глубина : 16 бит
Метод сжатия : С потерями
Размер потока : 162 Мбайт (8%)
Язык : English
Default : Нет
Forced : Нет

Меню
00:00:00.000 : en:Chapter 01
00:11:52.400 : en:Chapter 02
00:19:02.640 : en:Chapter 03
00:29:02.720 : en:Chapter 04
00:41:07.880 : en:Chapter 05
00:50:17.480 : en:Chapter 06
00:59:20.280 : en:Chapter 07
01:10:18.160 : en:Chapter 08
01:20:57.480 : en:Chapter 09
01:28:35.320 : en:Chapter 10
01:38:42.240 : en:Chapter 11
01:46:27.400 : en:Chapter 12
Исходник видео R2 Релиз от: Temperest



Скачать Жил.был.мошенник.There.Was.a.Crooked.Man.(Джозеф.Л.Манкевич).[1970.вестерн.комедия.DVDRip-AVC].[MVO].torrent без регистрации
Золото ЗОЛОТАЯ РАЗДАЧА! СКАЧАННОЕ НЕ ЗАСЧИТЫВАЕТСЯ! Золото
Дата: Зарегистрирован   [ Тип: внутренний ] Как тут cкачать?
MAGNET ссылка
MAGNET ссылка


Скачать .torrent

11 KB

Статус: проверено DHT
Скачан: торрент - 113 раз, раздача полностью - 5 раз
Размер: 2,05 GB
Оценка:  - (Голосов: 0)
Поблагодарили: 1
Поделиться ссылкой на эту раздачу с друзьями:
В контактеFacebookОдноклассникиTwitterLivejournalМой МирLiveinternet
 

 
Показать сообщения:    


Вы не можете начинать темы
Вы не можете отвечать на сообщения
Вы не можете редактировать свои сообщения
Вы не можете удалять свои сообщения
Вы не можете голосовать в опросах
Вы не можете прикреплять файлы к сообщениям
Вы можете скачивать файлы