Loading...
Error

Скачать Принц воров / Beyond Sherwood Forest (Питер ДеЛуис) [2009, фэнтэзи, приключения, BDRip-AVC] [MVO] торрент без регистрации

 
Статистика раздачи
Размер:  1,85 GB   |    Скачан:  138 раз
Сидов:  1  [  0 KB/s  ]  
 
Автор Сообщение

Marsianka

[] 

Информация о фильме
Название: Принц воров
Оригинальное название: Beyond Sherwood Forest
Год выхода: 2009
Жанр: фэнтэзи, приключения
Режиссер: Питер ДеЛуис
В ролях: Робин Данн, Эрика Дуранс, Ричард Де Клерк, Джулиан Сэндз, Дэвид Ричмонд-Пек, Пол Лейзенби, Лауро Чартрэнд, Дэвид Полффи, Кэйнан Уайби

О фильме:
Конец ХII века. Англия стонет под властью принца Джона, пока законный король Ричард сражается за свою веру в крестовом походе. Простые англичане нищают, платя непосильные налоги. Лишь благородный разбойник Робин Гуд, подлинный хозяин Шервудского леса, помогает беднякам, грабя ненавистных сборщиков подати принца Джона. Но и над Робином нависла смертельная опасность: шериф Малколм получил власть над неуязвимым драконом и приказал принести ему голову неуловимого вора.


Страна: Канада
Продолжительность: 01:33:20
Перевод: Профессиональный многоголосый

Файл
Кодек: H.264
Качество: BDRip-AVC
Видео: MPEG-4 AVC, 2000 Кбит/с, 1024x576
Звук: Русский (AC3, 6 ch, 384 Кбит/с), английский (AC3, 6 ch, 448 Кбит/с)
Общее
Уникальный идентификатор : 205721454018518601266986596982829439117 (0x9AC482C70C01BBBAA0414671B38D588D)
Полное имя : D:фильмыPrinc.vorov.2009.x264.BDRip.(AVC).ExKinoRay.mkv
Формат : Matroska
Размер файла : 1,85 Гбайт
Продолжительность : 1 ч. 33 м.
Общий поток : 2833 Кбит/сек
Название фильма : Princ.vorov.2009.x264.BDRip.(AVC).ExKinoRay
Дата кодирования : UTC 2014-03-17 18:18:19
Программа кодирования : mkvmerge v4.0.0 ('The Stars were mine') сборка от Jun 6 2010 16:18:42
Библиотека кодирования : libebml v1.0.0 + libmatroska v1.0.0

Видео
Идентификатор : 1
Формат : AVC
Формат/Информация : Advanced Video Codec
Профиль формата : High@L4.1
Параметр CABAC формата : Да
Параметр ReFrames формата : 8 кадров
Идентификатор кодека : V_MPEG4/ISO/AVC
Продолжительность : 1 ч. 33 м.
Битрейт : 2000 Кбит/сек
Ширина : 1024 пикс.
Высота : 576 пикс.
Соотношение сторон : 16:9
Частота кадров : 23,976 кадр/сек
Цветовое пространство : YUV
Подвыборка цветности : 4:2:0
Битовая глубина : 8 бит
Тип развёртки : Прогрессивная
Бит/(Пиксели*Кадры) : 0.141
Размер потока : 1,27 Гбайт (69%)
Заголовок : Rip by Enigma-Vladislav71
Библиотека кодирования : x264 core 125 r2208 d9d2288
Настройки программы : cabac=1 / ref=8 / deblock=1:-2:-2 / analyse=0x3:0x133 / me=umh / subme=11 / psy=1 / psy_rd=1.00:0.00 / mixed_ref=1 / me_range=48 / chroma_me=1 / trellis=2 / 8x8dct=1 / cqm=0 / deadzone=21,11 / fast_pskip=0 / chroma_qp_offset=-2 / threads=3 / lookahead_threads=1 / sliced_threads=0 / nr=0 / decimate=0 / interlaced=0 / bluray_compat=0 / constrained_intra=0 / bframes=8 / b_pyramid=2 / b_adapt=2 / b_bias=0 / direct=3 / weightb=1 / open_gop=0 / weightp=2 / keyint=240 / keyint_min=23 / scenecut=40 / intra_refresh=0 / rc=2pass / mbtree=0 / bitrate=2000 / ratetol=1.0 / qcomp=0.60 / qpmin=10 / qpmax=51 / qpstep=4 / cplxblur=20.0 / qblur=0.5 / ip_ratio=1.40 / pb_ratio=1.30 / aq=1:1.00

Аудио #1
Идентификатор : 2
Формат : AC-3
Формат/Информация : Audio Coding 3
Расширение режима : CM (complete main)
Идентификатор кодека : A_AC3
Продолжительность : 1 ч. 33 м.
Вид битрейта : Постоянный
Битрейт : 384 Кбит/сек
Каналы : 6 каналов
Расположение каналов : Front: L C R, Side: L R, LFE
Частота : 48,0 КГц
Битовая глубина : 16 бит
Метод сжатия : С потерями
Размер потока : 256 Мбайт (14%)
Язык : Russian

Аудио #2
Идентификатор : 3
Формат : AC-3
Формат/Информация : Audio Coding 3
Расширение режима : CM (complete main)
Идентификатор кодека : A_AC3
Продолжительность : 1 ч. 33 м.
Вид битрейта : Постоянный
Битрейт : 448 Кбит/сек
Каналы : 6 каналов
Расположение каналов : Front: L C R, Side: L R, LFE
Частота : 48,0 КГц
Битовая глубина : 16 бит
Метод сжатия : С потерями
Размер потока : 299 Мбайт (16%)
Язык : English
Релиз от:



Скачать Принц.воров.Beyond.Sherwood.Forest.(Питер.ДеЛуис).[2009.фэнтэзи.приключения.BDRip-AVC].[MVO].torrent без регистрации
Золото ЗОЛОТАЯ РАЗДАЧА! СКАЧАННОЕ НЕ ЗАСЧИТЫВАЕТСЯ! Золото
Дата: Зарегистрирован   [ Тип: внутренний ] Как тут cкачать?
MAGNET ссылка
MAGNET ссылка


Скачать .torrent

19 KB

Статус: проверено DHT
Скачан: торрент - 138 раз, раздача полностью - 33 раз
Размер: 1,85 GB
Оценка:  1 (Голосов: 1)
Поблагодарили: 2
Поделиться ссылкой на эту раздачу с друзьями:
В контактеFacebookОдноклассникиTwitterLivejournalМой МирLiveinternet
 

 

miron-71

[] 

на букву г,,,, полное
 
Показать сообщения:    


Вы не можете начинать темы
Вы не можете отвечать на сообщения
Вы не можете редактировать свои сообщения
Вы не можете удалять свои сообщения
Вы не можете голосовать в опросах
Вы не можете прикреплять файлы к сообщениям
Вы можете скачивать файлы