Loading...
Error

Скачать Извне / С того света / From Beyond (Стюарт Гордон) [1986, ужасы, BDRip] [MVO (ТВ3)] + 3x[AVO (Гаврилов , Карцев, Иванов )] + [VO (Филонов)] + [Original Eng] торрент без регистрации

 
Статистика раздачи
Размер:  1,92 GB   |    Скачан:  111 раз
Сидов:  1  [  0 KB/s  ]  
 
Автор Сообщение

jon99

[] 


Извне / С того света / From Beyond


Год выпуска: 1986
Выпущено: США
Жанр: ужасы
Продолжительность: 01:25:36
Перевод: Профессиональный (многоголосый закадровый) - ТВ3 (с 0:11:30 по 0: 14:22 вставки Гаврилова )
Перевод: Авторский (одноголосый закадровый) - Пётр Карцев
Перевод: Одноголосый закадровый - Константин Филонов
Перевод: Авторский (одноголосый закадровый) - Андрей Гаврилов
Перевод: Авторский (одноголосый закадровый) - Михаил Иванов
Cубтитры: русские (Димидрол), английские
Оригинальная аудиодорожка: английский
Режиссер: Стюарт Гордон
В ролях: Джеффри Комбс, Барбара Крэмптон, Кен Фори, Тед Сорел, Кэролин Перди-Гордон, Банни Саммерс, Брюс МакГуайр, Дел Рассел, Дэйл Виатт
Описание: Гениальный физик Эдвард Преториус и его ассистент Кроуфорд Тиллингаст создают таинственный прибор. Резонатор! Резонатор стимулирует, находящуюся в мозге, мало изученную шишковидную железу – эпифиз. Будучи активизированным, эпифиз, который ещё средневековые ученые считали третьим глазом человека, позволяет увидеть то, что обычными органами зрения увидеть невозможно! Но, к сожалению, первое же испытание резонатора приводит к кошмарным результатам: Тиллингаст попадает в сумасшедший дом, а Преториуса находят обезглавленным на полу собственной лаборатории. Тиллингаста начинают обвинять в убийстве, но он с маниакальным упорством твердит, что голову его шефа откусило «Оно» - отвратительное существо, пробравшееся в их лабораторию с того света…


Качество: BDRip
Формат: AVI
Видео кодек: XviD
Аудио кодек: AC3
Видео: 704x384 (1.83:1), 23.976 fps, XviD build 73 ~1851 kbps avg, 0.28 bit/pixel
Аудио 1: 48 kHz, AC3 Dolby Digital, 2/0 (L,R) ch, ~192 kbps - ТВ3
Аудио 2: 48 kHz, AC3 Dolby Digital, 2/0 (L,R) ch, ~192 kbps - Карцев
Аудио 3: 48 kHz, AC3 Dolby Digital, 2/0 (L,R) ch, ~192 kbps - Филонов

Цитата:

Аудио: 48 kHz, AC3 Dolby Digital, 2/0 (L,R) ch, ~192 kbps - Гаврилов
Аудио: 48 kHz, AC3 Dolby Digital, 2/0 (L,R) ch, ~192 kbps - Иванов
Аудио: 48 kHz, AC3 Dolby Digital, 4/0 (L,R,l,r) ch, ~384 kbps - оригинал

Цитата:


General
Complete name : G:\From.Beyond.1986.bdrip_[1.46].avi
Format : AVI
Format/Info : Audio Video Interleave
File size : 1.46 GiB
Duration : 1h 25mn
Overall bit rate : 2 447 Kbps
Writing application : VirtualDubMod 1.5.10.3 | www.virtualdub-fr.org || (build 2550/release)
Writing library : VirtualDubMod build 2550/release

Video
ID : 0
Format : MPEG-4 Visual
Format profile : Advanced Simple@L5
Format settings, BVOP : 2
Format settings, QPel : No
Format settings, GMC : No warppoints
Format settings, Matrix : Custom
Codec ID : XVID
Codec ID/Hint : XviD
Duration : 1h 25mn
Bit rate : 1 852 Kbps
Width : 704 pixels
Height : 384 pixels
Display aspect ratio : 16:9
Frame rate : 23.976 fps
Color space : YUV
Chroma subsampling : 4:2:0
Bit depth : 8 bits
Scan type : Progressive
Compression mode : Lossy
Bits/(Pixel*Frame) : 0.286
Stream size : 1.11 GiB (76%)
Writing library : XviD 73

Audio #1
ID : 1
Format : AC-3
Format/Info : Audio Coding 3
Mode extension : CM (complete main)
Codec ID : 2000
Duration : 1h 25mn
Bit rate mode : Constant
Bit rate : 192 Kbps
Channel(s) : 2 channels
Channel positions : Front: L R
Sampling rate : 48.0 KHz
Bit depth : 16 bits
Compression mode : Lossy
Stream size : 117 MiB (8%)
Alignment : Split accross interleaves
Interleave, duration : 42 ms (1.00 video frame)
Interleave, preload duration : 500 ms

Audio #2
ID : 2
Format : AC-3
Format/Info : Audio Coding 3
Mode extension : CM (complete main)
Codec ID : 2000
Duration : 1h 25mn
Bit rate mode : Constant
Bit rate : 192 Kbps
Channel(s) : 2 channels
Channel positions : Front: L R
Sampling rate : 48.0 KHz
Bit depth : 16 bits
Compression mode : Lossy
Stream size : 117 MiB (8%)
Alignment : Split accross interleaves
Interleave, duration : 42 ms (1.00 video frame)
Interleave, preload duration : 500 ms

Audio #3
ID : 3
Format : AC-3
Format/Info : Audio Coding 3
Mode extension : CM (complete main)
Codec ID : 2000
Duration : 1h 25mn
Bit rate mode : Constant
Bit rate : 192 Kbps
Channel(s) : 2 channels
Channel positions : Front: L R
Sampling rate : 48.0 KHz
Bit depth : 16 bits
Compression mode : Lossy
Stream size : 117 MiB (8%)
Alignment : Split accross interleaves
Interleave, duration : 42 ms (1.00 video frame)
Interleave, preload duration : 500 ms









Скачать Извне.С.того.света.From.Beyond.(Стюарт.Гордон).[1986.ужасы.BDRip].[MVO.(ТВ3)].+.3x[AVO.(Гаврилов.Карцев.Иванов.)].+.[VO.(Филонов)].+.[Original.Eng].torrent без регистрации
Золото ЗОЛОТАЯ РАЗДАЧА! СКАЧАННОЕ НЕ ЗАСЧИТЫВАЕТСЯ! Золото
Дата: Зарегистрирован   [ Тип: внутренний ] Как тут cкачать?
MAGNET ссылка
MAGNET ссылка


Скачать .torrent

20 KB

Статус: проверено DHT
Скачан: торрент - 111 раз, раздача полностью - 5 раз
Размер: 1,92 GB
Оценка:  5 (Голосов: 2)
Поблагодарили: 4
Поделиться ссылкой на эту раздачу с друзьями:
В контактеFacebookОдноклассникиTwitterLivejournalМой МирLiveinternet
 

 

jon99

[] 

Еще прикольный фильмец по роману говарда Лавкрафта ay пока что в таком качестве , позже будет от меня в 720 p !
 
Показать сообщения:    


Вы не можете начинать темы
Вы не можете отвечать на сообщения
Вы не можете редактировать свои сообщения
Вы не можете удалять свои сообщения
Вы не можете голосовать в опросах
Вы не можете прикреплять файлы к сообщениям
Вы можете скачивать файлы