Loading...
Error

Скачать 80 минут / 80 Minutes (Томас Ян) [2008, боевик, триллер, DVDRip] [DVO] торрент без регистрации

 
Статистика раздачи
Размер:  704 MB   |    Скачан:  102 раза
Сидов:  1  [  0 KB/s  ]  
 
Автор Сообщение

Marsianka

[] 

Информация о фильме
Название: 80 минут
Оригинальное название: 80 Minutes
Год выхода: 2008
Жанр: боевик, триллер
Режиссёр: Томас Ян
В ролях: Гэбриел Манн, Натали Авелон, Джошуа Даллас, Макс Урлахер, Йоханнес Брэндрап, Эксел Ведекинд, Ксения Сиберг

О фильме:
День рождения - праздник? Только не для Алекса. Вместо обещанного торта от любимой девушки Моны, Алекс получает дозу смертельного яда от мафиозного дельца Вальтера. Таким жестоким путем Вальтер потребовал вернуть ему долг, и теперь у Алекса остается всего лишь 80 минут, чтобы достать деньги и спасти себе жизнь, получив противоядие! Ночная гонка началась - любовь, предательство, катастрофы, убийства. 80 минут жизни и никаких шансов.



Страна: Германия
Студия: Zeitsprung Entertainment
Продолжительность: 01:28:44
Перевод: Профессиональный двухголосый
Оригинальная аудио-дорожка: Нет

Файл
Кодек: XviD
Качество: DVDRip (Исходник: DVD-9)
Видео: XviD, 672x288 (2.35:1), 974 Кбит/с, 25 кадр/с
Аудио: Русский, MP3, 48000 Гц, 128 Кбит/с, 2 канала (Стерео)
Субтитры: Нет



Автор рипа - ivandubskoj

Общее
Полное имя : 80.Minut.2008.DVDRip.700MB.avi
Формат : AVI
Формат/Информация : Audio Video Interleave
Размер файла : 704 Мбайт
Продолжительность : 1 ч. 28 м.
Общий поток : 1111 Кбит/сек
Название фильма : 80 минут / 80 Minutes (2008) DVDRip
Жанр : Боевик, триллер
Дата записи : 02.04.2014
Программа кодирования : VirtualDubMod 1.5.10.3 (build 2550/release)
Библиотека кодирования : VirtualDubMod build 2550/release
Правообладатель : rip by ivandubskoj

Видео
Идентификатор : 0
Формат : MPEG-4 Visual
Профиль формата : Advanced Simple@L5
Параметр BVOP формата : 1
Параметр QPel формата : Нет
Параметр GMC формата : Без точки перехода
Параметр матрицы формата : Default (H.263)
Идентификатор кодека : XVID
Идентификатор кодека/Подсказка : XviD
Продолжительность : 1 ч. 28 м.
Битрейт : 974 Кбит/сек
Ширина : 672 пикселя
Высота : 288 пикселей
Соотношение сторон : 2,35:1
Частота кадров : 25,000 кадров/сек
Цветовое пространство : YUV
Субдискретизация насыщенности : 4:2:0
Битовая глубина : 8 бит
Тип развёртки : Прогрессивная
Метод сжатия : С потерями
Бит/(Пиксели*Кадры) : 0.201
Размер потока : 616 Мбайт (88%)
Библиотека кодирования : XviD 73

Аудио
Идентификатор : 1
Формат : MPEG Audio
Версия формата : Version 1
Профиль формата : Layer 3
Идентификатор кодека : 55
Идентификатор кодека/Подсказка : MP3
Продолжительность : 1 ч. 28 м.
Вид битрейта : Постоянный
Битрейт : 128 Кбит/сек
Каналы : 2 канала
Частота : 48,0 КГц
Метод сжатия : С потерями
Размер потока : 81,2 Мбайт (12%)
Выравнивание : Соединение по промежуткам
Продолжительность промежутка : 40 мс. (1,00 видеокадр)
Время предзагрузки промежутка : 504 мс.
Заголовок : Russian (DVO)
Библиотека кодирования : LAME3.99r
Настройки программы : -m s -V 4 -q 2 -lowpass 17 -b 128



Скачать 80.минут.80.Minutes.(Томас.Ян).[2008.боевик.триллер.DVDRip].[DVO].torrent без регистрации
Золото ЗОЛОТАЯ РАЗДАЧА! СКАЧАННОЕ НЕ ЗАСЧИТЫВАЕТСЯ! Золото
Дата: Зарегистрирован   [ Тип: внутренний ] Как тут cкачать?
MAGNET ссылка
MAGNET ссылка


Скачать .torrent

14 KB

Статус: проверено DHT
Скачан: торрент - 102 раз, раздача полностью - 10 раз
Размер: 704 MB
Оценка:  - (Голосов: 0)
Поблагодарили: 1
Поделиться ссылкой на эту раздачу с друзьями:
В контактеFacebookОдноклассникиTwitterLivejournalМой МирLiveinternet
 

 
Показать сообщения:    


Вы не можете начинать темы
Вы не можете отвечать на сообщения
Вы не можете редактировать свои сообщения
Вы не можете удалять свои сообщения
Вы не можете голосовать в опросах
Вы не можете прикреплять файлы к сообщениям
Вы можете скачивать файлы