Loading...
Error

Скачать Воспитывая Аризону / Raising Arizona (Джоэл Коэн, Итэн Коэн) [1987, комедия, криминал, детектив, приключения, HDRip] [DVO] торрент без регистрации

 
Статистика раздачи
Размер:  742 MB   |    Скачан:  101 раз
Сидов:  1  [  0 KB/s  ]  
 
Автор Сообщение

Marsianka

[] 

Информация о фильме
Название: Воспитывая Аризону
Оригинальное название: Raising Arizona
Год выхода: 1987
Жанр: комедия, криминал, детектив, приключения
Режиссер: Джоэл Коэн / Joel Coen, Итэн Коэн / Ethan Coen
В ролях: Николас Кэйдж /Nicolas Cage/, Холли Хантер /Holly Hunter/, Трей Уилсон /Trey Wilson/, Джон Гудмэн /John Goodman/, Уильям Форсайт /William Forsythe/, Рэндолл "Текс" Кобб /Randall 'Tex' Cobb/

О фильме:
Хай был мелким грабителем. Эдвина служила в полиции. Они встречались регулярно после того, как его в очередной раз хватали и везли в кутузку. А потом Хай и Эдвина поженились.

Эта странная пара была вполне счастлива, но у них не было детей, и тогда они решили похитить младенца, чтобы было кого воспитывать


Страна: США
Продолжительность: 01:34:06
Перевод: Профессиональный (двухголосый, закадровый)

Файл
Кодек: XviD / MP3
Качество: HDRip
Видео: XviD, 624x336 (1.857), 23.976 fps, 965 Kbps (0.192 bit/pixel)
Звук: MP3, 48.0 KHz, 2 ch, 128 Kbps, CBR
General
Complete name : E:Raising.Arizona_[Rutor.org].avi
Format : AVI
Format/Info : Audio Video Interleave
File size : 742 MiB
Duration : 1h 34mn
Overall bit rate : 1 102 Kbps
Writing application : VirtualDubMod 1.5.10.2 (build 2540/release)
Writing library : VirtualDubMod build 2540/release

Video
ID : 0
Format : MPEG-4 Visual
Format profile : Advanced Simple@L5
Format settings, BVOP : 1
Format settings, QPel : No
Format settings, GMC : No warppoints
Format settings, Matrix : Custom
Codec ID : XVID
Codec ID/Hint : XviD
Duration : 1h 34mn
Bit rate : 965 Kbps
Width : 624 pixels
Height : 336 pixels
Display aspect ratio : 1.857
Frame rate : 23.976 fps
Color space : YUV
Chroma subsampling : 4:2:0
Bit depth : 8 bits
Scan type : Progressive
Compression mode : Lossy
Bits/(Pixel*Frame) : 0.192
Stream size : 650 MiB (88%)
Writing library : XviD 1.2.1 (UTC 2008-12-04)

Audio
ID : 1
Format : MPEG Audio
Format version : Version 1
Format profile : Layer 3
Codec ID : 55
Codec ID/Hint : MP3
Duration : 1h 34mn
Bit rate mode : Constant
Bit rate : 128 Kbps
Channel(s) : 2 channels
Sampling rate : 48.0 KHz
Compression mode : Lossy
Stream size : 86.2 MiB (12%)
Alignment : Aligned on interleaves
Interleave, duration : 42 ms (1.00 video frame)
Interleave, preload duration : 504 ms
Writing library : LAME3.97
Encoding settings : -m s -V 4 -q 2 -lowpass 17 -b 128



Скачать Воспитывая.Аризону.Raising.Arizona.(Джоэл.Коэн.Итэн.Коэн).[1987.комедия.криминал.детектив.приключения.HDRip].[DVO].torrent без регистрации
Золото ЗОЛОТАЯ РАЗДАЧА! СКАЧАННОЕ НЕ ЗАСЧИТЫВАЕТСЯ! Золото
Дата: Зарегистрирован   [ Тип: внутренний ] Как тут cкачать?
MAGNET ссылка
MAGNET ссылка


Скачать .torrent

15 KB

Статус: проверено DHT
Скачан: торрент - 101 раз, раздача полностью - 2 раз
Размер: 742 MB
Оценка:  - (Голосов: 0)
Поблагодарили: 0
Поделиться ссылкой на эту раздачу с друзьями:
В контактеFacebookОдноклассникиTwitterLivejournalМой МирLiveinternet
 

 
Показать сообщения:    


Вы не можете начинать темы
Вы не можете отвечать на сообщения
Вы не можете редактировать свои сообщения
Вы не можете удалять свои сообщения
Вы не можете голосовать в опросах
Вы не можете прикреплять файлы к сообщениям
Вы можете скачивать файлы