Loading...
Error

Скачать Преступные войны / War Crimes (Майкл Дж. Томас, Ник С. Томас) [2005, триллер, DVDRip] [MVO]+[Оригинал] торрент без регистрации

 
Статистика раздачи
Размер:  1,37 GB   |    Скачан:  97 раз
Сидов:  1  [  0 KB/s  ]  
 
Автор Сообщение

Marsianka

[] 

Страна: Великобритания
Производство: Spearhead Films
Жанр: триллер
Год выпуска: 2005
Продолжительность: 01:21:13
Перевод: Профессиональный многоголосый
Оригинальная аудиодорожка: Английская
Режиссер: Майкл Дж. Томас, Ник С. Томас
В ролях: Эрл Палмер, Джон Дженнер, Мэтью Дженкинс, Стюарт Мосс, Дин Болт, Жан Кастеллари, Гари Фишер, Шон Фишер, Йен Грэй

Описание: 1992. Югославия в гражданской войне. Шесть друзей, британских выпускников отправляются в Сараево, посмотреть, чем они могут помочь. После увиденной ужасной бойни, их преследует жестокий офицер югославской армии и его безжалостные бойцы. Погода портится, запасов продовольствия совсем мало, они терпят потери. Смогут ли они покинуть Югославию живыми?



Исходник: DVD5 R5
Тип релиза: DVDRip
Контейнер: AVI
Видео: XviD, 2024 Кбит/с, 704x368
Аудио: Русский, английский (АС3, 2 ch, 192 Кбит/с)
Общее
Полное имя : D:залитьПреступные войны.avi
Формат : AVI
Формат/Информация : Audio Video Interleave
Размер файла : 1,37 Гбайт
Продолжительность : 1 ч. 21 м.
Общий поток : 2417 Кбит/сек
Программа кодирования : VirtualDubMod 1.5.10.2 (build 2540/release)
Библиотека кодирования : VirtualDubMod build 2540/release

Видео
Идентификатор : 0
Формат : MPEG-4 Visual
Профиль формата : Advanced Simple@L5
Параметр BVOP формата : 2
Параметр QPel формата : Нет
Параметр GMC формата : Без точки перехода
Параметр матрицы формата : Default (MPEG)
Идентификатор кодека : XVID
Идентификатор кодека/Подсказка : XviD
Продолжительность : 1 ч. 21 м.
Битрейт : 2018 Кбит/сек
Ширина : 704 пикселя
Высота : 368 пикселей
Соотношение сторон : 1,913
Частота кадров : 23,976 кадра/сек
Цветовое пространство : YUV
Субдискретизация насыщенности : 4:2:0
Битовая глубина : 8 бит
Тип развёртки : Прогрессивная
Метод сжатия : С потерями
Бит/(Пиксели*Кадры) : 0.325
Размер потока : 1,15 Гбайт (84%)
Библиотека кодирования : XviD 1.2.1 (UTC 2008-12-04)

Аудио #1
Идентификатор : 1
Формат : AC-3
Формат/Информация : Audio Coding 3
Расширение режима : CM (complete main)
Параметр Endianness формата : Big
Идентификатор кодека : 2000
Продолжительность : 1 ч. 21 м.
Вид битрейта : Постоянный
Битрейт : 192 Кбит/сек
Каналы : 2 канала
Расположение каналов : Front: L R
Частота : 48,0 КГц
Битовая глубина : 16 бит
Метод сжатия : С потерями
Размер потока : 112 Мбайт (8%)
Выравнивание : Разделение по промежуткам
Продолжительность промежутка : 42 мс. (1,00 видеокадр)
Время предзагрузки промежутка : 500 мс.

Аудио #2
Идентификатор : 2
Формат : AC-3
Формат/Информация : Audio Coding 3
Расширение режима : CM (complete main)
Параметр Endianness формата : Big
Идентификатор кодека : 2000
Продолжительность : 1 ч. 21 м.
Вид битрейта : Постоянный
Битрейт : 192 Кбит/сек
Каналы : 2 канала
Расположение каналов : Front: L R
Частота : 48,0 КГц
Битовая глубина : 16 бит
Метод сжатия : С потерями
Размер потока : 112 Мбайт (8%)
Выравнивание : Разделение по промежуткам
Продолжительность промежутка : 42 мс. (1,00 видеокадр)
Время предзагрузки промежутка : 500 мс.
Автор рипа:



Скачать Преступные.войны.War.Crimes.(Майкл.Дж.Томас.Ник.С.Томас).[2005.триллер.DVDRip].[MVO]+[Оригинал].torrent без регистрации
Золото ЗОЛОТАЯ РАЗДАЧА! СКАЧАННОЕ НЕ ЗАСЧИТЫВАЕТСЯ! Золото
Дата: Зарегистрирован   [ Тип: внутренний ] Как тут cкачать?
MAGNET ссылка
MAGNET ссылка


Скачать .torrent

16 KB

Статус: проверено DHT
Скачан: торрент - 97 раз, раздача полностью - 1 раз
Размер: 1,37 GB
Оценка:  4 (Голосов: 1)
Поблагодарили: 0
Поделиться ссылкой на эту раздачу с друзьями:
В контактеFacebookОдноклассникиTwitterLivejournalМой МирLiveinternet
 

 
Показать сообщения:    


Вы не можете начинать темы
Вы не можете отвечать на сообщения
Вы не можете редактировать свои сообщения
Вы не можете удалять свои сообщения
Вы не можете голосовать в опросах
Вы не можете прикреплять файлы к сообщениям
Вы можете скачивать файлы