Loading...
Error

Скачать Президио / The Presidio (Питер Хайамс) [1988, боевик, триллер, криминал, детектив, BDRip-AVC] [MVO]+[DVO]+[AVO(Володарский)]+[Sub] торрент без регистрации

 
Статистика раздачи
Размер:  2,94 GB   |    Скачан:  104 раза
Сидов:  1  [  0 KB/s  ]  
 
Автор Сообщение

Marsianka

[] 

Информация о фильме
Название: Президио
Оригинальное название: The Presidio
Год выхода: 1988
Жанр: боевик, триллер, криминал, детектив
Режиссер: Питер Хайамс
В ролях: Шон Коннери, Марк Хэрмон, Мег Райан, Джек Уорден, Марк Блум, Дэна Гладстоун, Дженетт Голдстин, Марвин Дж. МакИнтайр, Дон Кэлфа, Джон ДиСанти, Роберт Лессер, Джеймс Хукс Рейнольдс, Кертис В. Симс, Рик Цумвальт, Розалин Маршалл, Джесси Лоуренс Фергюсон, Ларри Флэш Дженкинс, Джесси Д. Гойнс, Ким Робиллард, Майкл Страссер, Чаки Дэвис, Рон Камминс, Пэтрик Килпэтрик

О фильме:Подполковник Вооруженных Сил США Алан Колдуэлл и инспектор полиции Сан-Франциско Джей Остин не особенно ладят. Откровенно говоря, они просто не выносят друг друга. Пару лет назад между мужчинами вспыхнул конфликт, который со временем перерос в стойкую ненависть. Теперь же эти заклятые враги вынуждены вместе заняться расследованием жестокого убийства, произошедшего на военной базе «Президио». Хуже того Инспектор Остин неожиданно стал проявлять активный интерес к молодой и привлекательной даме, которая волею судеб оказалась дочерью подполковника Колдуэлла. Но именно в тот момент, когда напряжение между недругами должно было превратиться в глобальную катастрофу, расследование принимает совершенно неожиданный оборот. Двум офицерам приходится объединиться, чтобы остаться в живых



Страна: США
Студия: Paramount Pictures
Продолжительность: 01:36:42
Перевод: Профессиональный многоголосый, профессиональный двухголосый, авторский одноголосый (Володарский)
Файл
Кодек: MPEG-4 AVC
Качество: BDRip-AVC
Видео: 3100 Кбит/с, 1024x426, 23.976 кадр/с
Аудио #1: Русский (AC3, 6 ch, 448 Кбит/с) / Профессиональный многоголосый
Аудио #2: Русский (AC3, 2 ch, 192 Кбит/с) / Профессиональный двухголосый (Видеофильм)
Аудио #3: Русский (AC3, 2 ch, 192 Кбит/с) / Авторский одноголосый (Володарский)
Аудио #4: Английский (AC3, 6 ch, 448 Кбит/с)
Субтитры: Английские
Семпл
Общее
Уникальный идентификатор : 241770840492502319408963994684491842330 (0xB5E35EC164306A6E8D810DBFA540431A)
Полное имя : D:Мои РипыPrezidio.1988.x264.BDRip.AVC.MediaClub.mkv
Формат : Matroska
Версия формата : Version 4 / Version 2
Размер файла : 2,94 Гбайт
Продолжительность : 1 ч. 36 м.
Общий поток : 4352 Кбит/сек
Название фильма : = MediaClub = rip by krakatuq
Дата кодирования : UTC 2014-04-03 14:27:07
Программа кодирования : mkvmerge v6.6.0 ('The Edge Of The In Between') built on Dec 1 2013 17:55:00
Библиотека кодирования : libebml v1.3.0 + libmatroska v1.4.1

Видео
Идентификатор : 1
Формат : AVC
Формат/Информация : Advanced Video Codec
Профиль формата : High@L4.1
Параметр CABAC формата : Да
Параметр ReFrames формата : 9 кадров
Идентификатор кодека : V_MPEG4/ISO/AVC
Продолжительность : 1 ч. 36 м.
Битрейт : 3100 Кбит/сек
Ширина : 1024 пикселя
Высота : 426 пикселей
Соотношение сторон : 2,40:1
Режим частоты кадров : Постоянный
Частота кадров : 23,976 кадра/сек
Цветовое пространство : YUV
Субдискретизация насыщенности : 4:2:0
Битовая глубина : 8 бит
Тип развёртки : Прогрессивная
Бит/(Пиксели*Кадры) : 0.296
Размер потока : 2,02 Гбайт (69%)
Заголовок : Prezidio.1988.x264.BDRip.AVC.MediaClub
Библиотека кодирования : x264 core 130 r2273 b3065e6
Настройки программы : cabac=1 / ref=9 / deblock=1:-2:-2 / analyse=0x3:0x133 / me=umh / subme=11 / psy=1 / psy_rd=1.00:0.15 / mixed_ref=1 / me_range=32 / chroma_me=1 / trellis=2 / 8x8dct=1 / cqm=0 / deadzone=21,11 / fast_pskip=0 / chroma_qp_offset=-3 / threads=3 / lookahead_threads=1 / sliced_threads=0 / nr=0 / decimate=0 / interlaced=0 / bluray_compat=0 / constrained_intra=0 / bframes=8 / b_pyramid=2 / b_adapt=2 / b_bias=0 / direct=3 / weightb=1 / open_gop=0 / weightp=2 / keyint=240 / keyint_min=23 / scenecut=40 / intra_refresh=0 / rc=2pass / mbtree=0 / bitrate=3100 / ratetol=1.0 / qcomp=0.60 / qpmin=0 / qpmax=69 / qpstep=4 / cplxblur=20.0 / qblur=0.5 / ip_ratio=1.40 / pb_ratio=1.30 / aq=1:1.00
Язык : English
Default : Да
Forced : Нет

Аудио #1
Идентификатор : 2
Формат : AC-3
Формат/Информация : Audio Coding 3
Расширение режима : CM (complete main)
Параметр Endianness формата : Big
Идентификатор кодека : A_AC3
Продолжительность : 1 ч. 36 м.
Вид битрейта : Постоянный
Битрейт : 448 Кбит/сек
Каналы : 6 каналов
Расположение каналов : Front: L C R, Side: L R, LFE
Частота : 48,0 КГц
Битовая глубина : 16 бит
Метод сжатия : С потерями
Размер потока : 310 Мбайт (10%)
Заголовок : TRACK_01_MVO_RUS
Язык : Russian
Default : Да
Forced : Да

Аудио #2
Идентификатор : 3
Формат : AC-3
Формат/Информация : Audio Coding 3
Расширение режима : CM (complete main)
Параметр Endianness формата : Big
Идентификатор кодека : A_AC3
Продолжительность : 1 ч. 36 м.
Вид битрейта : Постоянный
Битрейт : 192 Кбит/сек
Каналы : 2 канала
Расположение каналов : Front: L R
Частота : 48,0 КГц
Битовая глубина : 16 бит
Метод сжатия : С потерями
Размер потока : 133 Мбайт (4%)
Заголовок : TRACK_02_DVO_RUS_Videofilm
Язык : Russian
Default : Нет
Forced : Нет

Аудио #3
Идентификатор : 4
Формат : AC-3
Формат/Информация : Audio Coding 3
Расширение режима : CM (complete main)
Параметр Endianness формата : Big
Идентификатор кодека : A_AC3
Продолжительность : 1 ч. 36 м.
Вид битрейта : Постоянный
Битрейт : 192 Кбит/сек
Каналы : 2 канала
Расположение каналов : Front: L R
Частота : 48,0 КГц
Битовая глубина : 16 бит
Метод сжатия : С потерями
Размер потока : 133 Мбайт (4%)
Заголовок : TRACK_03_AVO_RUS_VOLODARSKIY
Язык : Russian
Default : Нет
Forced : Нет

Аудио #4
Идентификатор : 5
Формат : AC-3
Формат/Информация : Audio Coding 3
Расширение режима : CM (complete main)
Параметр Endianness формата : Big
Идентификатор кодека : A_AC3
Продолжительность : 1 ч. 36 м.
Вид битрейта : Постоянный
Битрейт : 448 Кбит/сек
Каналы : 6 каналов
Расположение каналов : Front: L C R, Side: L R, LFE
Частота : 48,0 КГц
Битовая глубина : 16 бит
Метод сжатия : С потерями
Размер потока : 310 Мбайт (10%)
Заголовок : TRACK_04_ORIGINAL_ENG
Язык : English
Default : Нет
Forced : Нет

Текст
Идентификатор : 6
Формат : UTF-8
Идентификатор кодека : S_TEXT/UTF8
Идентификатор кодека/Информация : UTF-8 Plain Text
Заголовок : TEXT_01_SUB_ENG
Язык : English
Default : Нет
Forced : Нет

Меню
00:00:00.000 : :Chapter 01
00:10:31.422 : :Chapter 02
00:13:10.623 : :Chapter 03
00:16:08.592 : :Chapter 04
00:23:08.595 : :Chapter 05
00:25:50.799 : :Chapter 06
00:33:41.310 : :Chapter 07
00:37:18.027 : :Chapter 08
00:41:40.664 : :Chapter 09
00:44:17.571 : :Chapter 10
00:47:21.964 : :Chapter 11
00:48:55.974 : :Chapter 12
00:56:53.159 : :Chapter 13
01:04:20.648 : :Chapter 14
01:14:38.307 : :Chapter 15
01:29:35.495 : :Chapter 16
01:36:42.421 : :Chapter 17
x264 [info]: frame I:1088 Avg QP:16.23 size: 75781
x264 [info]: frame P:29492 Avg QP:18.81 size: 31026
x264 [info]: frame B:108545 Avg QP:19.95 size: 11522
Релиз от:

Автор рипа:



Скачать Президио.The.Presidio.(Питер.Хайамс).[1988.боевик.триллер.криминал.детектив.BDRip-AVC].[MVO]+[DVO]+[AVO(Володарский)]+[Sub].torrent без регистрации
Золото ЗОЛОТАЯ РАЗДАЧА! СКАЧАННОЕ НЕ ЗАСЧИТЫВАЕТСЯ! Золото
Дата: Зарегистрирован   [ Тип: внутренний ] Как тут cкачать?
MAGNET ссылка
MAGNET ссылка


Скачать .torrent

15 KB

Статус: проверено DHT
Скачан: торрент - 104 раз, раздача полностью - 8 раз
Размер: 2,94 GB
Оценка:  - (Голосов: 0)
Поблагодарили: 1
Поделиться ссылкой на эту раздачу с друзьями:
В контактеFacebookОдноклассникиTwitterLivejournalМой МирLiveinternet
 

 
Показать сообщения:    


Вы не можете начинать темы
Вы не можете отвечать на сообщения
Вы не можете редактировать свои сообщения
Вы не можете удалять свои сообщения
Вы не можете голосовать в опросах
Вы не можете прикреплять файлы к сообщениям
Вы можете скачивать файлы