Loading...
Error

Скачать Воскрешение / Resurrection (сезон 02) (Дэниэл Эттиэс, Кевин Даулинг, Чарльз МакДугалл) [2014, фэнтези, драма, WEB-DL] [1080p] [MVO (NewStudio)]+[Eng] торрент без регистрации

 
Статистика раздачи
Размер:  22,14 GB   |    Скачан:  246 раз
Сидов:  1  [  0 KB/s  ]  
 
Автор Сообщение

МихаНЕзатор

[] 

Информация о фильме
Название: Воскрешение
Оригинальное название: Resurrection
Год выхода: 2014
Жанр: драма, фэнтези
Режиссер: Чарльз Макдугалл


В ролях: Самира Армстронг, Мэтт Крэвен, Омар Эппс, Фрэнсис Фишер, Лэндон Хименес, Сэм Хэзелдайн, Марк Хилдрет, Кертвуд Смит



Описание: В центре сюжета находятся жители маленького городка, которые сталкиваются с возвращением из мёртвых своих близких людей...



Релиз:



Выпущено: США
Продолжительность: 2 x ~ 00:43:00
Перевод: Профессиональный (многоголосый, закадровый) (NewStudio)



Файл
Формат: MKV
Качество: WEB-DL 1080p
Видео: H.264, 1920x1080 [16:9], 23.976 fps, 4 884 kbps, 0.098 bit/pixel
Аудио 1: AC3, 48 kHz, 6 ch, 384 kbps [NewStudio]
Аудио 2: AC3, 48 kHz, 6 ch, 384 kbps [Original]
Размер: 3.39 GB


АНОНСЫ ПОПУЛЯРНЫХ РАЗДАЧ


03.02.2015 г. торент обновлён, добавлена 13-я серия!
General
Unique ID : 198282202974495830287166538095584019121 (0x952BC3620AF73A1A8F0315E3EFB702B1)
Complete name : /Resurrection.S02E01.WEBDL.1080p.NewStudio.TV.mkv
Format : Matroska
Format version : Version 2
File size : 1.73 GiB
Duration : 42mn 59s
Overall bit rate : 5 767 Kbps
Encoded date : UTC 2014-09-30 10:58:05
Writing application : mkvmerge v2.9.9 ('Tutu') built on Nov 25 2009 21:13:32
Writing library : libebml v0.7.9 + libmatroska v0.8.1
Attachment : Yes / Yes / Yes / Yes

Video
ID : 1
Format : AVC
Format/Info : Advanced Video Codec
Format profile : High@L4.0
Format settings, CABAC : Yes
Format settings, ReFrames : 4 frames
Codec ID : V_MPEG4/ISO/AVC
Duration : 42mn 59s
Bit rate : 4 884 Kbps
Width : 1 920 pixels
Height : 1 080 pixels
Display aspect ratio : 16:9
Frame rate mode : Constant
Frame rate : 23.976 fps
Color space : YUV
Chroma subsampling : 4:2:0
Bit depth : 8 bits
Scan type : Progressive
Bits/(Pixel*Frame) : 0.098
Stream size : 1.47 GiB (85%)
Language : English
Default : No
Forced : No
Color primaries : BT.709
Transfer characteristics : BT.709
Matrix coefficients : BT.709

Audio #1
ID : 2
Format : AC-3
Format/Info : Audio Coding 3
Mode extension : CM (complete main)
Format settings, Endianness : Big
Codec ID : A_AC3
Duration : 42mn 59s
Bit rate mode : Constant
Bit rate : 384 Kbps
Channel(s) : 6 channels
Channel positions : Front: L C R, Side: L R, LFE
Sampling rate : 48.0 KHz
Bit depth : 16 bits
Compression mode : Lossy
Stream size : 118 MiB (7%)
Language : Russian
Default : Yes
Forced : Yes

Audio #2
ID : 3
Format : AC-3
Format/Info : Audio Coding 3
Mode extension : CM (complete main)
Format settings, Endianness : Big
Codec ID : A_AC3
Duration : 42mn 59s
Bit rate mode : Constant
Bit rate : 384 Kbps
Channel(s) : 6 channels
Channel positions : Front: L C R, Side: L R, LFE
Sampling rate : 48.0 KHz
Bit depth : 16 bits
Compression mode : Lossy
Stream size : 118 MiB (7%)
Language : English
Default : No
Forced : No



Скачать Воскрешение.Resurrection.(сезон.02).(Дэниэл.Эттиэс.Кевин.Даулинг.Чарльз.МакДугалл).[2014.фэнтези.драма.WEB-DL].[1080p].[MVO.(NewStudio)]+[Eng].torrent без регистрации
Золото ЗОЛОТАЯ РАЗДАЧА! СКАЧАННОЕ НЕ ЗАСЧИТЫВАЕТСЯ! Золото
Дата: Зарегистрирован   [ Тип: внутренний ] Как тут cкачать?
MAGNET ссылка
MAGNET ссылка


Скачать .torrent

112 KB

Статус: проверено DHT
Скачан: торрент - 246 раз, раздача полностью - 4 раз
Размер: 22,14 GB
Оценка:  5 (Голосов: 1)
Поблагодарили: 3
Поделиться ссылкой на эту раздачу с друзьями:
В контактеFacebookОдноклассникиTwitterLivejournalМой МирLiveinternet
 

 

МихаНЕзатор

[] 

Раздача обновлена.
 
Показать сообщения:    


Вы не можете начинать темы
Вы не можете отвечать на сообщения
Вы не можете редактировать свои сообщения
Вы не можете удалять свои сообщения
Вы не можете голосовать в опросах
Вы не можете прикреплять файлы к сообщениям
Вы можете скачивать файлы