Loading...
Error

Скачать Водитель / The Driver (Уолтер Хилл) [1978, боевик, триллер, криминал, BDRip] [MVO]+[AVO(Леонид Либергал, Алексей Михалёв)]+[Sub]x2 торрент без регистрации

 
Статистика раздачи
Размер:  1,74 GB   |    Скачан:  101 раз
Сидов:  1  [  0 KB/s  ]  
 
Автор Сообщение

Marsianka

[] 

Название: Водитель
Оригинальное название: The Driver
Год выпуска: 1978
Жанр: боевик, триллер, криминал
Выпущено: США, Великобритания, 20th Century Fox Film Corporation, EMI Films Ltd.
Режиссер: Уолтер Хилл
В ролях: Райан О`Нил, Брюс Дерн, Изабель Аджани, Рони Блейкли, Мэтт Кларк, Феличе Орланди, Джозеф Уолш, Руди Рамос, Денни Мако, Фрэнк Бруно

О фильме: Неприятности аса-водителя и угонщика автомобилей начинаются в тот момент, когда он становится соучастником ограбления банка. Водитель в бегах ведёт настоящую дуэль с беспощадным полицейским, расставляющим ловушки на пути беглеца. Знакомство с прекрасной, но непредсказуемой в поступках женщиной-азартным игроком, которую во всей этой истории привлекает не результат, а участие, усложняет жизнь водителя.

Качество: BDRip
Видео: XviD, 2003 Kбит/сбит/с, 720x384
Аудио: Русский (АС3, 2 ch, 192 Кбит/с), английский (AC3, 1 ch, 192 Кбит/с)
Размер: 1.74 ГБ
Продолжительность: 01:29:21
Перевод: Профессиональный многоголосый, авторский (Леонид Либергал, Алексей Михалёв)
Субтитры: Русские, английские

Исходник: posodobl (Кинозал)

Сравнение с исходником

Общее
Полное имя : D:VideoVoditel.1978.XviD.BDRipVoditel.1978.eng.srt
Формат : SubRip
Размер файла : 50,8 Кбайт

Текст
Формат : SubRip
Метод сжатия : Без потерь

Общее
Полное имя : D:VideoVoditel.1978.XviD.BDRipVoditel.1978.Original.eng.ac3
Формат : AC-3
Формат/Информация : Audio Coding 3
Размер файла : 123 Мбайт
Продолжительность : 1 ч. 29 м.
Режим общего битрейта : Постоянный
Общий поток : 192 Кбит/сек

Аудио
Формат : AC-3
Формат/Информация : Audio Coding 3
Расширение режима : CM (complete main)
Параметр Endianness формата : Big
Продолжительность : 1 ч. 29 м.
Вид битрейта : Постоянный
Битрейт : 192 Кбит/сек
Каналы : 1 канал
Расположение каналов : Front: C
Частота : 48,0 КГц
Битовая глубина : 16 бит
Метод сжатия : С потерями
Размер потока : 123 Мбайт (100%)

Общее
Полное имя : D:VideoVoditel.1978.XviD.BDRipVoditel.1978.rus.srt
Формат : SubRip
Размер файла : 45,7 Кбайт

Текст
Формат : SubRip
Метод сжатия : Без потерь

Общее
Полное имя : D:VideoVoditel.1978.XviD.BDRipVoditel.1978.XviD.BDRip.avi
Формат : AVI
Формат/Информация : Audio Video Interleave
Размер файла : 1,62 Гбайт
Продолжительность : 1 ч. 29 м.
Общий поток : 2598 Кбит/сек
Программа кодирования : VirtualDubMod 1.5.10.2 (build 2540/release)
Библиотека кодирования : VirtualDubMod build 2540/release

Видео
Идентификатор : 0
Формат : MPEG-4 Visual
Профиль формата : Advanced Simple@L5
Параметр BVOP формата : 1
Параметр QPel формата : Нет
Параметр GMC формата : Без точки перехода
Параметр матрицы формата : Default (H.263)
Режим смешивания : Сжатый битовый поток
Идентификатор кодека : XVID
Идентификатор кодека/Подсказка : XviD
Продолжительность : 1 ч. 29 м.
Битрейт : 2003 Кбит/сек
Ширина : 720 пикселей
Высота : 384 пикселя
Соотношение сторон : 1,85:1
Частота кадров : 23,976 кадра/сек
Цветовое пространство : YUV
Субдискретизация насыщенности : 4:2:0
Битовая глубина : 8 бит
Тип развёртки : Прогрессивная
Метод сжатия : С потерями
Бит/(Пиксели*Кадры) : 0.302
Размер потока : 1,25 Гбайт (77%)
Библиотека кодирования : XviD 1.2.1 (UTC 2008-12-04)

Аудио #1
Идентификатор : 1
Формат : AC-3
Формат/Информация : Audio Coding 3
Расширение режима : CM (complete main)
Параметр Endianness формата : Big
Идентификатор кодека : 2000
Продолжительность : 1 ч. 29 м.
Вид битрейта : Постоянный
Битрейт : 192 Кбит/сек
Каналы : 2 канала
Расположение каналов : Front: L R
Частота : 48,0 КГц
Битовая глубина : 16 бит
Метод сжатия : С потерями
Размер потока : 123 Мбайт (7%)
Выравнивание : Разделение по промежуткам
Продолжительность промежутка : 42 мс. (1,00 видеокадр)
Время предзагрузки промежутка : 500 мс.

Аудио #2
Идентификатор : 2
Формат : AC-3
Формат/Информация : Audio Coding 3
Расширение режима : CM (complete main)
Параметр Endianness формата : Big
Идентификатор кодека : 2000
Продолжительность : 1 ч. 29 м.
Вид битрейта : Постоянный
Битрейт : 192 Кбит/сек
Каналы : 2 канала
Расположение каналов : Front: L R
Частота : 48,0 КГц
Битовая глубина : 16 бит
Метод сжатия : С потерями
Размер потока : 123 Мбайт (7%)
Выравнивание : Разделение по промежуткам
Продолжительность промежутка : 42 мс. (1,00 видеокадр)
Время предзагрузки промежутка : 500 мс.

Аудио #3
Идентификатор : 3
Формат : AC-3
Формат/Информация : Audio Coding 3
Расширение режима : CM (complete main)
Параметр Endianness формата : Big
Идентификатор кодека : 2000
Продолжительность : 1 ч. 29 м.
Вид битрейта : Постоянный
Битрейт : 192 Кбит/сек
Каналы : 2 канала
Расположение каналов : Front: L R
Частота : 48,0 КГц
Битовая глубина : 16 бит
Метод сжатия : С потерями
Размер потока : 123 Мбайт (7%)
Выравнивание : Разделение по промежуткам
Продолжительность промежутка : 42 мс. (1,00 видеокадр)
Время предзагрузки промежутка : 500 мс.



Скачать Водитель.The.Driver.(Уолтер.Хилл).[1978.боевик.триллер.криминал.BDRip].[MVO]+[AVO(Леонид.Либергал.Алексей.Михалёв)]+[Sub]x2.torrent без регистрации
Золото ЗОЛОТАЯ РАЗДАЧА! СКАЧАННОЕ НЕ ЗАСЧИТЫВАЕТСЯ! Золото
Дата: Зарегистрирован   [ Тип: внутренний ] Как тут cкачать?
MAGNET ссылка
MAGNET ссылка


Скачать .torrent

18 KB

Статус: проверено DHT
Скачан: торрент - 101 раз, раздача полностью - 2 раз
Размер: 1,74 GB
Оценка:  5 (Голосов: 1)
Поблагодарили: 2
Поделиться ссылкой на эту раздачу с друзьями:
В контактеFacebookОдноклассникиTwitterLivejournalМой МирLiveinternet
 

 
Показать сообщения:    


Вы не можете начинать темы
Вы не можете отвечать на сообщения
Вы не можете редактировать свои сообщения
Вы не можете удалять свои сообщения
Вы не можете голосовать в опросах
Вы не можете прикреплять файлы к сообщениям
Вы можете скачивать файлы