Loading...
Error

Скачать Бумеранг! / Boomerang! (Элиа Казан) [1947, драма, криминал, фильм-нуар, BDRip-AVC] [Sub]x2 торрент без регистрации

 
Статистика раздачи
Размер:  1,75 GB   |    Скачан:  99 раз
Сидов:  1  [  0 KB/s  ]  
 
Автор Сообщение

Marsianka

[] 

Информация о фильме
Название: Бумеранг!
Оригинальное название: Boomerang!
Год выхода: 1947
Жанр: драма, криминал, фильм-нуар
Режиссер: Элиа Казан
В ролях: Дэна Эндрюс, Джейн Уайатт, Ли Дж. Кобб, Артур Кеннеди, Сэм Левин, Роберт Кит, Тэйлор Холмс, Эд Бегли, Карл Молден, Кэра Уильямс, Бэрри Келли, Филип Кулидж, Артур Миллер

О фильме:
После убийства священника был спешно арестован невинный безработный бродяга, но прокурор принимает решение докопаться до истины. Во всех отношениях блестящая драма, снятая в черно-белом изображении в стиле film noir и как бы в документальной манере. Сочный сценарий Ричарда Мерфи основан на газетной статье "Идеальное дело" Энтони Эбботта, рассказавшего о действительном убийстве 1924 года, не раскрытого до сих пор. Драматург Артур Миллер появляется на экране в сцене опознания подозреваемых. Номинация на "Оскар" за сценарий.



Страна: США, Twentieth Century Fox Film Corporation
Продолжительность: 01:28:02
Перевод: Отсутствует
Субтитры: Русские, английские
Дата релиза: 03.04.2014

Файл
Кодек: H.264
Качество: BDRip (AVC)
Видео: MPEG-4 AVC, 2654 Кбит/с, 784x576
Звук: AC3, 2 ch, 192 Кбит/с
Общее
Уникальный идентификатор : 219780996179425124059793148040598383097 (0xA55847B98B2B825CA25814CFB8B5E9F9)
Полное имя : D:8Boomerang.1947.x264.BDRip.(AVC).ExKinoRay.mkv
Формат : Matroska
Размер файла : 1,75 Гбайт
Продолжительность : 1 ч. 28 м.
Общий поток : 2848 Кбит/сек
Название фильма : Boomerang.1947.x264.BDRip.(AVC).ExKinoRay
Дата кодирования : UTC 2014-04-03 17:43:24
Программа кодирования : mkvmerge v4.0.0 ('The Stars were mine') сборка от Jun 6 2010 16:18:42
Библиотека кодирования : libebml v1.0.0 + libmatroska v1.0.0

Видео
Идентификатор : 1
Формат : AVC
Формат/Информация : Advanced Video Codec
Профиль формата : High@L4.1
Параметр CABAC формата : Да
Параметр ReFrames формата : 8 кадров
Идентификатор кодека : V_MPEG4/ISO/AVC
Продолжительность : 1 ч. 28 м.
Битрейт : 2654 Кбит/сек
Ширина : 784 пикс.
Высота : 576 пикс.
Соотношение сторон : 4:3
Частота кадров : 23,976 кадр/сек
Цветовое пространство : YUV
Подвыборка цветности : 4:2:0
Битовая глубина : 8 бит
Тип развёртки : Прогрессивная
Бит/(Пиксели*Кадры) : 0.245
Размер потока : 1,60 Гбайт (91%)
Заголовок : Rip by Enigma-Vladislav71
Библиотека кодирования : x264 core 129 r2245 bc13772
Настройки программы : cabac=1 / ref=8 / deblock=1:-2:-2 / analyse=0x3:0x133 / me=umh / subme=11 / psy=1 / psy_rd=1.00:0.00 / mixed_ref=1 / me_range=48 / chroma_me=1 / trellis=2 / 8x8dct=1 / cqm=0 / deadzone=21,11 / fast_pskip=0 / chroma_qp_offset=-2 / threads=3 / lookahead_threads=1 / sliced_threads=0 / nr=0 / decimate=0 / interlaced=0 / bluray_compat=0 / constrained_intra=0 / bframes=8 / b_pyramid=2 / b_adapt=2 / b_bias=0 / direct=3 / weightb=1 / open_gop=0 / weightp=2 / keyint=240 / keyint_min=23 / scenecut=40 / intra_refresh=0 / rc=2pass / mbtree=0 / bitrate=2654 / ratetol=1.0 / qcomp=0.60 / qpmin=10 / qpmax=51 / qpstep=4 / cplxblur=20.0 / qblur=0.5 / ip_ratio=1.40 / pb_ratio=1.30 / aq=2:1.00
Язык : English

Аудио
Идентификатор : 2
Формат : AC-3
Формат/Информация : Audio Coding 3
Расширение режима : CM (complete main)
Идентификатор кодека : A_AC3
Продолжительность : 1 ч. 28 м.
Вид битрейта : Постоянный
Битрейт : 192 Кбит/сек
Каналы : 2 канала
Расположение каналов : Front: L R
Частота : 48,0 КГц
Битовая глубина : 16 бит
Метод сжатия : С потерями
Размер потока : 121 Мбайт (7%)
Язык : English

Текст #1
Идентификатор : 3
Формат : UTF-8
Идентификатор кодека : S_TEXT/UTF8
Идентификатор кодека/Информация : UTF-8 Plain Text
Язык : Russian

Текст #2
Идентификатор : 4
Формат : UTF-8
Идентификатор кодека : S_TEXT/UTF8
Идентификатор кодека/Информация : UTF-8 Plain Text
Язык : English
Релиз от:

Авторы релиза:



Скачать Бумеранг!.Boomerang!.(Элиа.Казан).[1947.драма.криминал.фильм-нуар.BDRip-AVC].[Sub]x2.torrent без регистрации
Золото ЗОЛОТАЯ РАЗДАЧА! СКАЧАННОЕ НЕ ЗАСЧИТЫВАЕТСЯ! Золото
Дата: Зарегистрирован   [ Тип: внутренний ] Как тут cкачать?
MAGNET ссылка
MAGNET ссылка


Скачать .torrent

18 KB

Статус: проверено DHT
Скачан: торрент - 99 раз, раздача полностью - 0 раз
Размер: 1,75 GB
Оценка:  - (Голосов: 0)
Поблагодарили: 1
Поделиться ссылкой на эту раздачу с друзьями:
В контактеFacebookОдноклассникиTwitterLivejournalМой МирLiveinternet
 

 
Показать сообщения:    


Вы не можете начинать темы
Вы не можете отвечать на сообщения
Вы не можете редактировать свои сообщения
Вы не можете удалять свои сообщения
Вы не можете голосовать в опросах
Вы не можете прикреплять файлы к сообщениям
Вы можете скачивать файлы