Loading...
Error

Скачать Кровь с молоком / Six Ways to Sunday (Адам Бернстайн) [1997, криминальная драма, DVDRip-AVC] [MVO]+[Sub] торрент без регистрации

 
Статистика раздачи
Размер:  2,09 GB   |    Скачан:  124 раза
Сидов:  1  [  0 KB/s  ]  
 
Автор Сообщение

Marsianka

[] 

Информация о фильме
Название: Кровь с молоком
Оригинальное название: Six Ways to Sunday
Год выхода: 1997
Жанр: криминальная драма
Режиссер: Адам Бернстайн / Adam Bernstein
В ролях: Норман Ридус / Norman Reedus (Harry Odum), Дебора Харри / Deborah Harry (Kate Odum), Эдриен Броуди / Adrien Brody (Arnie Finklestein), Элина Лёвенсон / Elina L¦wensohn (Iris)

О фильме:
Герой фильма 18-летний Гарри скромный и застенчивый мальчик, полностью контролируемый и опекаемый своей не в меру любящей мамой. Вся его энергия находит выход в яростных и необузданных вспышках насилия, что в итоге приводит его в местную мафию. Там он не только делает блестящую карьеру киллера, но и находит свою первую любовь. Но те же силы, которые делают из него первоклассного бандита, вовлекают его в водоворот жестокости и, извращенной сексуальности, предательств и саморазрушения...

По книге Charles Perry "Портрет тонущего юноши".


Страна: США
Студия: Prosperity Electric, Scout Productions
Продолжительность: 01:37:11.456
Перевод: Профессиональный (многоголосый, закадровый) R5

Файл
Кодек: h.264
Качество: DVDRip-AVC
Видео: 704x416 (1.988) @ 828x416 (анаморф), 23.976 fps, AVC, ~2188 Kbps, 0.312 bits/pixel
Звук:
Русский, 48.0 KHz, AC3, 6 ch, 448 Kbps
Английский, 48.0 KHz, AC3, 6 ch, 448 Kbps
Субтитры: Русские, SRT (UTF-8) R5
Общее
Уникальный идентификатор : 251502560186464190145369208883397125780 (0xBD35A194B49E28B4877CABCF6131E694)
Полное имя : D:FilmsKrov_s_molokom.1997.DVDRip-AVC.mkv
Формат : Matroska
Версия формата : Version 4 / Version 2
Размер файла : 2,09 Гбайт
Продолжительность : 1 ч. 37 м.
Общий поток : 3084 Кбит/сек
Дата кодирования : UTC 2014-04-03 18:04:49
Программа кодирования : mkvmerge v6.8.0 ('Theme for Great Cities') 64bit built on Mar 2 2014 21:34:26
Библиотека кодирования : libebml v1.3.0 + libmatroska v1.4.1

Видео
Идентификатор : 1
Формат : AVC
Формат/Информация : Advanced Video Codec
Профиль формата : High@L4.1
Параметр CABAC формата : Да
Параметр ReFrames формата : 16 кадров
Идентификатор кодека : V_MPEG4/ISO/AVC
Продолжительность : 1 ч. 37 м.
Битрейт : 2188 Кбит/сек
Ширина : 704 пикселя
Высота : 416 пикселей
Соотношение сторон : 1,988
Режим частоты кадров : Постоянный
Частота кадров : 23,976 кадра/сек
Цветовое пространство : YUV
Субдискретизация насыщенности : 4:2:0
Битовая глубина : 8 бит
Тип развёртки : Прогрессивная
Бит/(Пиксели*Кадры) : 0.312
Размер потока : 1,44 Гбайт (69%)
Библиотека кодирования : x264 core 138 r2358 9e941d1
Настройки программы : cabac=1 / ref=16 / deblock=1:0:0 / analyse=0x3:0x133 / me=umh / subme=10 / psy=1 / psy_rd=1.10:0.10 / mixed_ref=1 / me_range=32 / chroma_me=1 / trellis=2 / 8x8dct=1 / cqm=0 / deadzone=21,11 / fast_pskip=0 / chroma_qp_offset=-6 / threads=8 / lookahead_threads=2 / sliced_threads=0 / nr=0 / decimate=0 / interlaced=0 / bluray_compat=0 / constrained_intra=0 / bframes=12 / b_pyramid=2 / b_adapt=2 / b_bias=0 / direct=3 / weightb=1 / open_gop=0 / weightp=2 / keyint=240 / keyint_min=23 / scenecut=60 / intra_refresh=0 / rc_lookahead=60 / rc=2pass / mbtree=0 / bitrate=2188 / ratetol=1.0 / qcomp=0.60 / qpmin=0 / qpmax=69 / qpstep=4 / cplxblur=20.0 / qblur=0.5 / vbv_maxrate=50000 / vbv_bufsize=62500 / nal_hrd=none / ip_ratio=1.40 / pb_ratio=1.30 / aq=2:1.00
Default : Нет
Forced : Нет
Коэффициенты матрицы : BT.601

Аудио #1
Идентификатор : 2
Формат : AC-3
Формат/Информация : Audio Coding 3
Расширение режима : CM (complete main)
Параметр Endianness формата : Big
Идентификатор кодека : A_AC3
Продолжительность : 1 ч. 37 м.
Вид битрейта : Постоянный
Битрейт : 448 Кбит/сек
Каналы : 6 каналов
Расположение каналов : Front: L C R, Side: L R, LFE
Частота : 48,0 КГц
Битовая глубина : 16 бит
Метод сжатия : С потерями
Размер потока : 311 Мбайт (15%)
Язык : Russian
Default : Да
Forced : Нет

Аудио #2
Идентификатор : 3
Формат : AC-3
Формат/Информация : Audio Coding 3
Расширение режима : CM (complete main)
Параметр Endianness формата : Big
Идентификатор кодека : A_AC3
Продолжительность : 1 ч. 37 м.
Вид битрейта : Постоянный
Битрейт : 448 Кбит/сек
Каналы : 6 каналов
Расположение каналов : Front: L C R, Side: L R, LFE
Частота : 48,0 КГц
Битовая глубина : 16 бит
Метод сжатия : С потерями
Размер потока : 311 Мбайт (15%)
Язык : English
Default : Нет
Forced : Нет

Текст
Идентификатор : 4
Формат : UTF-8
Идентификатор кодека : S_TEXT/UTF8
Идентификатор кодека/Информация : UTF-8 Plain Text
Язык : Russian
Default : Нет
Forced : Нет

Меню
00:00:00.000 : en:Chapter 01
00:01:12.167 : en:Chapter 02
00:04:13.200 : en:Chapter 03
00:08:15.534 : en:Chapter 04
00:15:48.934 : en:Chapter 05
00:22:21.268 : en:Chapter 06
00:26:21.668 : en:Chapter 07
00:31:42.735 : en:Chapter 08
00:36:32.102 : en:Chapter 09
00:43:04.469 : en:Chapter 10
00:48:14.703 : en:Chapter 11
00:53:17.604 : en:Chapter 12
00:59:33.938 : en:Chapter 13
01:08:12.639 : en:Chapter 14
01:13:41.006 : en:Chapter 15
01:21:14.240 : en:Chapter 16
01:25:38.007 : en:Chapter 17
01:27:30.307 : en:Chapter 18
Исходник R1 + синхр. дорожка и субтитры с R5. Качество видео не лучшее, но все же заметно лучше R5, качество которого уровня VHS. Исходное видео на DVD R1 немного кропировано сверху и снизу (оригинальный OAR 1.85:1),вследствие этого такой "странный" AR
Релиз от: Temperest



Скачать Кровь.с.молоком.Six.Ways.to.Sunday.(Адам.Бернстайн).[1997.криминальная.драма.DVDRip-AVC].[MVO]+[Sub].torrent без регистрации
Золото ЗОЛОТАЯ РАЗДАЧА! СКАЧАННОЕ НЕ ЗАСЧИТЫВАЕТСЯ! Золото
Дата: Зарегистрирован   [ Тип: внутренний ] Как тут cкачать?
MAGNET ссылка
MAGNET ссылка


Скачать .torrent

11 KB

Статус: проверено DHT
Скачан: торрент - 124 раз, раздача полностью - 19 раз
Размер: 2,09 GB
Оценка:  5 (Голосов: 1)
Поблагодарили: 3
Поделиться ссылкой на эту раздачу с друзьями:
В контактеFacebookОдноклассникиTwitterLivejournalМой МирLiveinternet
 

 
Показать сообщения:    


Вы не можете начинать темы
Вы не можете отвечать на сообщения
Вы не можете редактировать свои сообщения
Вы не можете удалять свои сообщения
Вы не можете голосовать в опросах
Вы не можете прикреплять файлы к сообщениям
Вы можете скачивать файлы