Loading...
Error

Скачать Давилка / The Mangler (Тоуб Хупер /Tobe Hooper) [1995 г., ужасы, DVDRip] [AVO] (А.Гаврилов) торрент без регистрации

 
Статистика раздачи
Размер:  1,46 GB   |    Скачан:  113 раз
Сидов:  1  [  0 KB/s  ]  
 
Автор Сообщение

leon030982

[] 

Давилка / The Mangler


Год выпуска: 1995
Страна: США, Австралия, ЮАР
Жанр: Ужасы
Продолжительность: 01:45:30
Перевод: Авторский (одноголосый) [Андрей Гаврилов]

Режиссер: Тоуб Хупер /Tobe Hooper

В ролях: Роберт Инглунд, Тед Левайн, Дэниел Мэтмор, Джереми Кратчли, Ванесса Пайк, Деметре Филлипс, Лиза Моррис, Вера Блэкер, Эшли Хейден, Дэнни Кеог
Описание: Бывалый детектив Джон Хаттон вызван расследовать страшные и непонятные события в мрачных стенах старинной прачечной, чьи работники становятся жертвами гигантской гладильной машины. Кажется, что сам демон повелевает древними механизмами, заставляя их перемалывать кости невинных людей.
Цинику Джону трудно поверить, что ему противостоят могущественные силы зла, но странное поведение владельца прачечной, загадочного Билла Гэртли, лишь усиливает его подозрение…



Качество: DVDRip
Формат: AVI
Видео кодек: XviD
Аудио кодек: AC3
Видео: 704x384 (1.83:1), 23.976 fps, XviD build 73 ~1784 kbps avg, 0.28 bit/pixel
Аудио: 48 kHz, AC3 Dolby Digital, 2/0 (L,R) ch, ~192.00 kbps avg

Цитата:

DVDRip от ale_x2008 (Исходник DVD9 с тру)
Данный видеоряд является эксклюзивом для экс ua, при выкладывании на других ресурсах просьба указывать первоисточник и авторство.
General
Complete name : E:\INTERNET\The Mangler.1995.DVDRip.[AVO] (Gavrilov).avi
Format : AVI
Format/Info : Audio Video Interleave
File size : 1.46 GiB
Duration : 1h 45mn
Overall bit rate : 1 986 Kbps
Director : ale_x2008
Genre : Horror
Writing application : VirtualDubMod 1.5.10.3 (build 2550/release)
Original source form/Name : Movie
Comment : 31.03.2014

Video
ID : 0
Format : MPEG-4 Visual
Format profile : Advanced Simple@L5
Format settings, BVOP : 1
Format settings, QPel : No
Format settings, GMC : No warppoints
Format settings, Matrix : Default (MPEG)
Codec ID : XVID
Codec ID/Hint : XviD
Duration : 1h 45mn
Bit rate : 1 785 Kbps
Width : 704 pixels
Height : 384 pixels
Display aspect ratio : 16:9
Frame rate : 23.976 fps
Color space : YUV
Chroma subsampling : 4:2:0
Bit depth : 8 bits
Scan type : Progressive
Compression mode : Lossy
Bits/(Pixel*Frame) : 0.275
Stream size : 1.32 GiB (90%)
Writing library : XviD 73

Audio
ID : 1
Format : AC-3
Format/Info : Audio Coding 3
Mode extension : CM (complete main)
Codec ID : 2000
Duration : 1h 45mn
Bit rate mode : Constant
Bit rate : 192 Kbps
Channel(s) : 2 channels
Channel positions : Front: L R
Sampling rate : 48.0 KHz
Bit depth : 16 bits
Compression mode : Lossy
Stream size : 145 MiB (10%)
Alignment : Split accross interleaves
Interleave, duration : 42 ms (1.00 video frame)
Interleave, preload duration : 500 ms



Скачать Давилка.The.Mangler.(Тоуб.Хупер.Tobe.Hooper).[1995.г.ужасы.DVDRip].[AVO].(А.Гаврилов).torrent без регистрации
Золото ЗОЛОТАЯ РАЗДАЧА! СКАЧАННОЕ НЕ ЗАСЧИТЫВАЕТСЯ! Золото
Дата: Зарегистрирован   [ Тип: внутренний ] Как тут cкачать?
MAGNET ссылка
MAGNET ссылка


Скачать .torrent

15 KB

Статус: проверено DHT
Скачан: торрент - 113 раз, раздача полностью - 4 раз
Размер: 1,46 GB
Оценка:  - (Голосов: 0)
Поблагодарили: 1
Поделиться ссылкой на эту раздачу с друзьями:
В контактеFacebookОдноклассникиTwitterLivejournalМой МирLiveinternet
 

 
Показать сообщения:    


Вы не можете начинать темы
Вы не можете отвечать на сообщения
Вы не можете редактировать свои сообщения
Вы не можете удалять свои сообщения
Вы не можете голосовать в опросах
Вы не можете прикреплять файлы к сообщениям
Вы можете скачивать файлы