Loading...
Error

Скачать Месье Верду / Monsieur Verdoux (Чарли Чаплин) [1947, драма, комедия, криминал, BDRip-AVC] [MVO]+[AVO(Толбин)]+[Sub]x2 торрент без регистрации

 
Статистика раздачи
Размер:  2,76 GB   |    Скачан:  98 раз
Сидов:  1  [  0 KB/s  ]  
 
Автор Сообщение

Marsianka

[] 

Информация о фильме
Название: Месье Верду
Оригинальное название: Monsieur Verdoux
Год выхода: 1947
Жанр: драма, комедия, криминал
Режиссер: Чарли Чаплин
В ролях: Чарли Чаплин, Мэди Коррелл, Эллисон Роддан, Роберт Льюис, Одри Бетц, Марта Рэй, Ада Мэй, Изобел Элсом, Марджори Беннетт, Хэлена Хей, Маргарет Хоффман, Мэрлин Нэш, Ирвинг Бэйкон, Эдвин Миллс, Вирджиния Бриссак, Альмира Сешнс, Ойла Морган, Бернард Неделл, Чарльз Эванс, Уильям Фроули, Артур Хол, Барбара Слэйтер, Фриц Лейбер, Вера Марше, Джон Хэрмон, Кристин Элль, Луис Конклин

О фильме:
Действие происходит в Париже 1930-х годов. Анри Верду (Чаплин) немолодой, но неотразимо обаятельный джентльмен. После тридцати лет добросовестной службы в банке он в одночасье потерял работу, когда наступила великая депрессия. Чтобы содержать прикованную к инвалидной коляске жену и школьника-сына, Верду стал проворачивать одну за другой брачные аферы. Он находил в разных частях Франции одиноких богатых дам, представлялся им холостяком, обольщал, женился и, завладев их соcтоянием, со временем избавлялся от «подруг жизни» при помощи яда. Та же судьба постигла и полицейского шпика, которому удалось выйти на след «синего бороды». После неудачной биржевой спекуляции, вызванной началом гражданской войны в Испании, Верду оказывается разорён. Его жена и сын умирают, а вместе с ними умирает и то, ради чего он жил. Он добровольно сдаётся полиции и перед смертной казнью декламирует известное изречение: «Убийство нескольких человек делает вас преступником, убийство миллионов героем».



Страна: США, Charles Chaplin Productions
Продолжительность: 02:03:58
Перевод: Профессиональный многоголосый, авторский
Субтитры: Русские, английские
Дата релиза: 04.04.2014

Файл
Кодек: H.264
Качество: BDRip (AVC)
Видео: MPEG-4 AVC, 2597 Кбит/с, 768x576
Аудио 1: Русский (AC3, 2 ch, 192 Кбит/с) - Профессиональный многоголосый (ВГТРК)
Аудио 2: Русский (AC3, 2 ch, 192 Кбит/с) - Авторский одноголосый (Толбин)
Аудио 3: Английский (AC3, 1 ch, 192 Кбит/с)
Общее
Уникальный идентификатор : 196305869795935321723070812199324295695 (0x93AF22A25BD4AC5B907E06309789220F)
Полное имя : D:8Mese.Verdu.1947.x264.BDRip.(AVC).ExKinoRay.mkv
Формат : Matroska
Размер файла : 2,76 Гбайт
Продолжительность : 2 ч. 4 м.
Общий поток : 3175 Кбит/сек
Название фильма : Mese.Verdu.1947.x264.BDRip.(AVC).ExKinoRay
Дата кодирования : UTC 2014-04-04 16:17:50
Программа кодирования : mkvmerge v4.0.0 ('The Stars were mine') сборка от Jun 6 2010 16:18:42
Библиотека кодирования : libebml v1.0.0 + libmatroska v1.0.0

Видео
Идентификатор : 1
Формат : AVC
Формат/Информация : Advanced Video Codec
Профиль формата : High@L4.1
Параметр CABAC формата : Да
Параметр ReFrames формата : 8 кадров
Идентификатор кодека : V_MPEG4/ISO/AVC
Продолжительность : 2 ч. 4 м.
Битрейт : 2597 Кбит/сек
Ширина : 768 пикс.
Высота : 576 пикс.
Соотношение сторон : 4:3
Частота кадров : 23,976 кадр/сек
Цветовое пространство : YUV
Подвыборка цветности : 4:2:0
Битовая глубина : 8 бит
Тип развёртки : Прогрессивная
Бит/(Пиксели*Кадры) : 0.245
Размер потока : 2,20 Гбайт (80%)
Заголовок : Rip by Enigma-Vladislav71
Библиотека кодирования : x264 core 129 r2245 bc13772
Настройки программы : cabac=1 / ref=8 / deblock=1:-2:-2 / analyse=0x3:0x133 / me=umh / subme=11 / psy=1 / psy_rd=1.00:0.00 / mixed_ref=1 / me_range=48 / chroma_me=1 / trellis=2 / 8x8dct=1 / cqm=0 / deadzone=21,11 / fast_pskip=0 / chroma_qp_offset=-2 / threads=3 / lookahead_threads=1 / sliced_threads=0 / nr=0 / decimate=0 / interlaced=0 / bluray_compat=0 / constrained_intra=0 / bframes=8 / b_pyramid=2 / b_adapt=2 / b_bias=0 / direct=3 / weightb=1 / open_gop=0 / weightp=2 / keyint=240 / keyint_min=23 / scenecut=40 / intra_refresh=0 / rc=2pass / mbtree=0 / bitrate=2597 / ratetol=1.0 / qcomp=0.60 / qpmin=10 / qpmax=51 / qpstep=4 / cplxblur=20.0 / qblur=0.5 / ip_ratio=1.40 / pb_ratio=1.30 / aq=2:1.00
Язык : English

Аудио #1
Идентификатор : 2
Формат : AC-3
Формат/Информация : Audio Coding 3
Расширение режима : CM (complete main)
Идентификатор кодека : A_AC3
Продолжительность : 2 ч. 4 м.
Вид битрейта : Постоянный
Битрейт : 192 Кбит/сек
Каналы : 2 канала
Расположение каналов : Front: L R
Частота : 48,0 КГц
Битовая глубина : 16 бит
Метод сжатия : С потерями
Размер потока : 171 Мбайт (6%)
Заголовок : Профессиональный многоголосый
Язык : Russian

Аудио #2
Идентификатор : 3
Формат : AC-3
Формат/Информация : Audio Coding 3
Расширение режима : CM (complete main)
Идентификатор кодека : A_AC3
Продолжительность : 2 ч. 4 м.
Вид битрейта : Постоянный
Битрейт : 192 Кбит/сек
Каналы : 2 канала
Расположение каналов : Front: L R
Частота : 48,0 КГц
Битовая глубина : 16 бит
Метод сжатия : С потерями
Размер потока : 171 Мбайт (6%)
Заголовок : Толбин
Язык : Russian

Аудио #3
Идентификатор : 4
Формат : AC-3
Формат/Информация : Audio Coding 3
Расширение режима : CM (complete main)
Идентификатор кодека : A_AC3
Продолжительность : 2 ч. 4 м.
Вид битрейта : Постоянный
Битрейт : 192 Кбит/сек
Каналы : 1 канал
Расположение каналов : Front: C
Частота : 48,0 КГц
Битовая глубина : 16 бит
Метод сжатия : С потерями
Размер потока : 171 Мбайт (6%)
Заголовок : английский
Язык : English

Текст #1
Идентификатор : 5
Формат : UTF-8
Идентификатор кодека : S_TEXT/UTF8
Идентификатор кодека/Информация : UTF-8 Plain Text
Язык : Russian

Текст #2
Идентификатор : 6
Формат : UTF-8
Идентификатор кодека : S_TEXT/UTF8
Идентификатор кодека/Информация : UTF-8 Plain Text
Язык : English
Релиз от:

Авторы релиза:



Скачать Месье.Верду.Monsieur.Verdoux.(Чарли.Чаплин).[1947.драма.комедия.криминал.BDRip-AVC].[MVO]+[AVO(Толбин)]+[Sub]x2.torrent без регистрации
Золото ЗОЛОТАЯ РАЗДАЧА! СКАЧАННОЕ НЕ ЗАСЧИТЫВАЕТСЯ! Золото
Дата: Зарегистрирован   [ Тип: внутренний ] Как тут cкачать?
MAGNET ссылка
MAGNET ссылка


Скачать .torrent

14 KB

Статус: проверено DHT
Скачан: торрент - 98 раз, раздача полностью - 1 раз
Размер: 2,76 GB
Оценка:  - (Голосов: 0)
Поблагодарили: 1
Поделиться ссылкой на эту раздачу с друзьями:
В контактеFacebookОдноклассникиTwitterLivejournalМой МирLiveinternet
 

 
Показать сообщения:    


Вы не можете начинать темы
Вы не можете отвечать на сообщения
Вы не можете редактировать свои сообщения
Вы не можете удалять свои сообщения
Вы не можете голосовать в опросах
Вы не можете прикреплять файлы к сообщениям
Вы можете скачивать файлы