Loading...
Error

Скачать Спортлото-82 (Леонид Гайдай) [1982, комедия, приключения, HDTV] [1080i] торрент без регистрации

Статистика раздачи
Размер:  7,16 GB   |    Скачан:  999 раз
Сидов:  1  [  0 KB/s  ]  
 
 
 
Автор Сообщение

sobmaster

[] 

Информация о фильме
Оригинальное название: Спортлото-82
Год выпуска: 1982
Жанр: комедия, приключения
Режиссер: Леонид Гайдай

В ролях: Альгис Арлаускас, Светлана Аманова, Михаил Пуговкин, Михаил Кокшенов, Денис Кмит, Нина Гребешкова, Андрей Толшин, Борислав Брондуков, Луиза Мосендз, Сергей Филиппов, Абессалом Лория, Виктор Уральский, Юрий Попович, Вера Ивлева, Татьяна Игнатова, Надежда Овчарова, Темурмалик Юнусов, Владимир Мышкин, Юрий Осипенко, Виктор Журавлев, Евгений Кочегаров

О фильме: В вагоне поезда, следующего к Черному морю, пассажир Костя, увлекшись чтением детектива, съедает все продукты своей случайной попутчицы Тани. В качестве компенсации за нанесенный ущерб, парень отдает ей билет "Спортлото". Заполнив билет, Таня возвращает его Косте на хранение. Костя о билете благополучно забывает, а на этот билет, естественно, выпадает выигрыш - большая сумма денег. И тогда Костя, Таня и Танин жених Паша принимаются искать "утерянное счастье" …



Выпущено: СССР, Мосфильм, Творческое объединение комедийных и музыкальных фильмов
Продолжительность: 01:27:50
Язык: Русский

Файл
Качество: HDTV (1080i)
Видео: MPEG-4 AVC, 10.7 Мбит/с, 1920x1080, 25 Кадр/с
Аудио: AC3, 2 ch, 384 Кбит/с
Размер: 7.16 ГБ

АНОНСЫ ПОПУЛЯРНЫХ РАЗДАЧ

- Занимает по посещаемости 25-е место среди отечественных фильмов за всю историю советского кинопроката;
- Игровая комбинация, выбранная героиней фильма (1,2,3,4,5,6), была представлена зрителю, как «самая редкая» или «невероятная». На самом деле, с точки зрения комбинаторики, эта комбинация такая же обычная, как и любая другая, она имеет такие же шансы на выпадение, как и любая другая комбинация.
- Большой прямоугольный камень, который обходит Сан Саныч и орех, с которого Никулин бросался грушами ("Орех Никулина") из другого к/ф Гайдая «Кавказская пленница, или Новые приключения Шурика»; находятся на расстоянии нескольких метров друг от друга.
- Исполнительница главной роли Светлана Аманова — брюнетка, поэтому на съёмках ей приходилось периодически обесцвечивать волосы перекисью водорода[2].
- Среди кандидатов на роль Павла и Степана рассматривался и очень популярный в то время Михаил Боярский.
- На роль директора турбазы изначально рассматривался Михаил Пуговкин, но в итоге эту роль отдали «мастеру эпизода» — Бориславу Брондукову, а Пуговкину досталась роль главного антагониста — «Сан Саныча».
- По утверждению Луизы Мосендз, её встретила в коридоре ассистентка по актёрам, которая тут же отвела девушку к Гайдаю, а тот практически сразу утвердил её на роль Аллы Дмитриевны.
- Место съёмок — Крым: железнодорожный вокзал и базар — Феодосия, стоянка «автокочевников» — Мыс Капчик. Турбаза «Орлиный приют» — горный массив Кара-Даг. Дом, в котором жили Сан Саныч и Костя Луков, находится в Феодосии по адресу ул. Прямая, 1, эпизод слежки за Костиком — пер.Нахимова, 2
- Пляж, где купается и загорает Константин, — городской пляж Алушты. На съёмках Сан Саныча и Степана в эпизодах с лодкой виден мыс Плака, также на заднем плане видна Медведь-Гора (Аю-Даг).
- Имя писателя Гениана Зеленого, детективом которого увлечены герои фильма, является аллюзией на популярного в то время среди читателей Юлиана Семенова.
- Сцена жаркого летнего дня, когда Таня (героиня Светланы Амановой) исполняет песню «Землю обходит любовь», снималась в условиях сильного холода. На фотографиях, сделанных в тот же день, Альгис Арлаускас в пальто и шапке. В кадре у Светланы всё время синели губы от холода


General
ID : 0 (0x0)
Complete name : Спортлото-82.1982-2014-04-05.ts
Format : MPEG-TS
File size : 7.16 GiB
Duration : 1h 27mn
Overall bit rate mode : Variable
Overall bit rate : 11.7 Mbps

Video
ID : 305 (0x131)
Menu ID : 20105 (0x4E89)
Format : AVC
Format/Info : Advanced Video Codec
Format profile : High@L4.0
Format settings, CABAC : Yes
Format settings, ReFrames : 3 frames
Format settings, GOP : M=4, N=28
Codec ID : 27
Duration : 1h 27mn
Bit rate : 10.7 Mbps
Width : 1 920 pixels
Height : 1 080 pixels
Display aspect ratio : 16:9
Frame rate : 25.000 fps
Standard : Component
Color space : YUV
Chroma subsampling : 4:2:0
Bit depth : 8 bits
Scan type : Interlaced
Scan order : Top Field First
Bits/(Pixel*Frame) : 0.207
Stream size : 6.57 GiB (92%)
Color primaries : BT.709
Transfer characteristics : BT.709
Matrix coefficients : BT.709

Audio
ID : 415 (0x19F)
Menu ID : 20105 (0x4E89)
Format : AC-3
Format/Info : Audio Coding 3
Mode extension : CM (complete main)
Format settings, Endianness : Big
Codec ID : 129
Duration : 1h 27mn
Bit rate mode : Constant
Bit rate : 384 Kbps
Channel(s) : 2 channels
Channel positions : Front: L R
Sampling rate : 48.0 KHz
Bit depth : 16 bits
Compression mode : Lossy
Delay relative to video : -13ms
Stream size : 241 MiB (3%)
Language : Russian
Language, more info : Clean effects



Скачать Спортлото-82.(Леонид.Гайдай).[1982.комедия.приключения.HDTV].[1080i].torrent без регистрации
Золото ЗОЛОТАЯ РАЗДАЧА! СКАЧАННОЕ НЕ ЗАСЧИТЫВАЕТСЯ! Золото
Дата: Зарегистрирован   [ Тип: внутренний ] Как тут cкачать?
MAGNET ссылка
MAGNET ссылка


Скачать .torrent

18 KB

Статус: проверено DHT
Скачан: торрент - 999 раз, раздача полностью - 1057 раз
Размер: 7,16 GB
Оценка:  5 (Голосов: 5)
Поблагодарили: 11
Поделиться ссылкой на эту раздачу с друзьями:
В контактеFacebookОдноклассникиTwitterLivejournalМой МирLiveinternet
 

 

Alexutt

[] 

Качество хорошее
 
Показать сообщения:    


Вы не можете начинать темы
Вы не можете отвечать на сообщения
Вы не можете редактировать свои сообщения
Вы не можете удалять свои сообщения
Вы не можете голосовать в опросах
Вы не можете прикреплять файлы к сообщениям
Вы можете скачивать файлы