Loading...
Error

Скачать Выбывший из игры / Odd Man Out (Кэрол Рид) [1947, фильм-нуар, триллер, драма, мелодрама, криминал, BDRip-AVC] [AVO(Медведев)] торрент без регистрации

 
Статистика раздачи
Размер:  2,46 GB   |    Скачан:  106 раз

Полного источника не было: 26 минут

 
Автор Сообщение

Marsianka

[] 

Информация о фильме
Название: Выбывший из игры
Оригинальное название: Odd Man Out
Год выхода: 1947
Жанр: фильм-нуар, триллер, драма, мелодрама, криминал
Режиссер: Кэрол Рид
В ролях: Джеймс Мэйсон, Роберт Ньютон, Сирил Кьюсак, Кэтлин Райан, Питер Джадж, Уильям Хартнелл, Фэй Комптон, Денис ОДи, У.Г. Фэй, Морин Делани, Элвин Брук-Джонс, Роберт Битти, Дэн О`Херлихи, Китти Кирван, Берил Мисор, Рой Ирвинг, Джозеф Томелти, Артур Хэмблинг, Энн Клери, Мойра Миллиган, Морин Кьюсак, Уилфрид Брэмбелл, Дора Брайан, Эдди Бирн, Гарри Хатчинсон, Джефри Кин, Пэт МакГрат, Морис Миллард, Ноэл Пёрселл, Гай Рольф

О фильме:
Британский фильм-нуар режиссёра Кэрола Рида, вышедший на экраны в 1947 году. Экранизация одноимённого романа Ф. Л. Грина. Кэрол Рид, один из лучших режиссеров Англии, сделал себе имя этим завораживающим, лирическим шедевром об обреченном беглеце. Мэйсон, возможно, в лучшей роли своей блистательной карьеры. Он играет Джонни, лидера ИРА, сбежавшего из тюрьмы, планирующего конфискацию зарплаты завода в Белфасте для финансирования своих подпольных операций. Хотя Джонни не любит насилия, во время ограбления он случайно убивает человека и сам получает серьезное ранение. Брошенный запаниковавшим водителем, он, ковыляя, уходит прочь, погружаясь в кошмар, по мере того как ранение вызывает у него все более бредовое состояние. Ему дают приют странные люди, которые или хотят помочь ему, или, наоборот, сдать британским властям. Тем временем его активно ищут Кэтлин (Райан) и соратники по ИРА. Джонни прячут в заброшенных зданиях и даже в старой ванне на какой-то свалке. В другой раз его подбирают две женщины, угощают чаем и, узнав, что он ранен, перевязывают рану. Наконец, он попадает в лапы эксцентричного художника, который хочет запечатлеть образ смерти в глазах Джонни, пока тот еще жив. Освободившись от этого безумца, Джонни пробирается к докам, пытаясь спастись. Там и находит его Кэтлин, одновременно с полицией...



Страна: Великобритания, Two Cities Films Ltd.
Продолжительность: 01:55:55
Перевод: Авторский одноголосый (Медведев)
Дата релиза: 05.04.2014

Файл
Кодек: H.264
Качество: BDRip (AVC)
Видео: MPEG-4 AVC, 2650 Кбит/с, 784x576
Звук: Русский, английский (AC3, 2 ch, 192 Кбит/с)
Общее
Уникальный идентификатор : 174321061054772187828530221036151535900 (0x832503E05D3431E697CF9481DA90791C)
Полное имя : D:7Vybyvshij.iz.igry.1947.x264.BDRip.(AVC).ExKinoRay.mkv
Формат : Matroska
Размер файла : 2,46 Гбайт
Продолжительность : 1 ч. 55 м.
Общий поток : 3036 Кбит/сек
Название фильма : Vybyvshij.iz.igry.1947.x264.BDRip.(AVC).ExKinoRay
Дата кодирования : UTC 2014-04-05 15:08:40
Программа кодирования : mkvmerge v4.0.0 ('The Stars were mine') сборка от Jun 6 2010 16:18:42
Библиотека кодирования : libebml v1.0.0 + libmatroska v1.0.0

Видео
Идентификатор : 1
Формат : AVC
Формат/Информация : Advanced Video Codec
Профиль формата : High@L4.1
Параметр CABAC формата : Да
Параметр ReFrames формата : 8 кадров
Идентификатор кодека : V_MPEG4/ISO/AVC
Продолжительность : 1 ч. 55 м.
Битрейт : 2650 Кбит/сек
Ширина : 784 пикс.
Высота : 576 пикс.
Соотношение сторон : 4:3
Частота кадров : 24,000 кадр/сек
Цветовое пространство : YUV
Подвыборка цветности : 4:2:0
Битовая глубина : 8 бит
Тип развёртки : Прогрессивная
Бит/(Пиксели*Кадры) : 0.245
Размер потока : 2,10 Гбайт (85%)
Заголовок : Rip by Enigma-Vladislav71
Библиотека кодирования : x264 core 129 r2245 bc13772
Настройки программы : cabac=1 / ref=8 / deblock=1:-2:-2 / analyse=0x3:0x133 / me=umh / subme=11 / psy=1 / psy_rd=1.00:0.00 / mixed_ref=1 / me_range=48 / chroma_me=1 / trellis=2 / 8x8dct=1 / cqm=0 / deadzone=21,11 / fast_pskip=0 / chroma_qp_offset=-2 / threads=3 / lookahead_threads=1 / sliced_threads=0 / nr=0 / decimate=0 / interlaced=0 / bluray_compat=0 / constrained_intra=0 / bframes=8 / b_pyramid=2 / b_adapt=2 / b_bias=0 / direct=3 / weightb=1 / open_gop=0 / weightp=2 / keyint=240 / keyint_min=23 / scenecut=40 / intra_refresh=0 / rc=2pass / mbtree=0 / bitrate=2650 / ratetol=1.0 / qcomp=0.60 / qpmin=10 / qpmax=51 / qpstep=4 / cplxblur=20.0 / qblur=0.5 / ip_ratio=1.40 / pb_ratio=1.30 / aq=2:1.00
Язык : English

Аудио #1
Идентификатор : 2
Формат : AC-3
Формат/Информация : Audio Coding 3
Расширение режима : CM (complete main)
Идентификатор кодека : A_AC3
Продолжительность : 1 ч. 55 м.
Вид битрейта : Постоянный
Битрейт : 192 Кбит/сек
Каналы : 2 канала
Расположение каналов : Front: L R
Частота : 48,0 КГц
Битовая глубина : 16 бит
Метод сжатия : С потерями
Размер потока : 159 Мбайт (6%)
Язык : Russian

Аудио #2
Идентификатор : 3
Формат : AC-3
Формат/Информация : Audio Coding 3
Расширение режима : CM (complete main)
Идентификатор кодека : A_AC3
Продолжительность : 1 ч. 55 м.
Вид битрейта : Постоянный
Битрейт : 192 Кбит/сек
Каналы : 2 канала
Расположение каналов : Front: L R
Частота : 48,0 КГц
Битовая глубина : 16 бит
Метод сжатия : С потерями
Размер потока : 159 Мбайт (6%)
Язык : English
Релиз от:

Авторы релиза:



Скачать Выбывший.из.игры.Odd.Man.Out.(Кэрол.Рид).[1947.фильм-нуар.триллер.драма.мелодрама.криминал.BDRip-AVC].[AVO(Медведев)].torrent без регистрации
Золото ЗОЛОТАЯ РАЗДАЧА! СКАЧАННОЕ НЕ ЗАСЧИТЫВАЕТСЯ! Золото
Дата: Зарегистрирован   [ Тип: внутренний ] Как тут cкачать?
MAGNET ссылка
MAGNET ссылка


Скачать .torrent

13 KB

Статус: проверено DHT
Скачан: торрент - 106 раз, раздача полностью - 3 раз
Размер: 2,46 GB
Оценка:  - (Голосов: 0)
Поблагодарили: 0
Поделиться ссылкой на эту раздачу с друзьями:
В контактеFacebookОдноклассникиTwitterLivejournalМой МирLiveinternet
 

 

sindzi

[] 

СПАСИБО БОЛЬШОЕ
 
Показать сообщения:    


Вы не можете начинать темы
Вы не можете отвечать на сообщения
Вы не можете редактировать свои сообщения
Вы не можете удалять свои сообщения
Вы не можете голосовать в опросах
Вы не можете прикреплять файлы к сообщениям
Вы можете скачивать файлы