Loading...
Error

Скачать Ночь живых мертвецов / Night of the Living Dead (Том Савини) [1990, ужасы, BDRip-AVC] x2 [AVO (Живов, Дохалов ] + [ VO (Jacob Bellmann)] + [Original Eng] + [Commentary] торрент без регистрации

 
Статистика раздачи
Размер:  3,39 GB   |    Скачан:  136 раз
Сидов:  1  [  0 KB/s  ]  
 
Автор Сообщение

jon99

[] 


Ночь живых мертвецов / Night of the Living Dead

«There IS a fate worse than death.»


Год выпуска: 1990
Выпущено: США
Жанр: ужасы
Продолжительность: 01:28:16
Перевод: Профессиональный (одноголосый закадровый),( Ю.Живов) (В.Дохалов)
Перевод: Любительский (одноголосый закадровый) Jacob Bellmann
Оригинальная английская дорожка
Комментарии на английском языке Tom Savini
Субтитры: русские x2, английские
Режиссер: Том Савини
В ролях: Тони Тодд, Патриша Тэллман, Том Таулз, МакКи Андерсон, Уильям Батлер, Кэти Финнеран, Билл Моусли, Хезер Мазур, Дэвид В. Батлер
Описание: Брат и сестра приезжают навестить могилу своей матушки на кладбище в окрестностях Питтсбурга. Брат пугает сестру рассказами о зомби, не подозревая о том, что он весьма недалек от реальности. Внезапно на них набрасывается один из покойников; брата убивают, а Барбара убегает, обнаруживая по дороге фермерский дом. Через какое-то время к нему подъезжает Бен, в бензобаке машины которого кончился бензин. Они решают остаться в доме и готовиться к обороне. Позже выясняется, что в подвале дома прячутся еще несколько человек. Все вместе они должны забаррикадироваться и переждать страшную ночь — ведь зомби не станут сидеть на крыльце и ждать, пока люди выйдут сами — они будут пытаться прорваться внутрь — желание отведать человеческого мяса в них безумно сильно.

Качество: BDRip-AVC
Формат: MKV
Видео кодек: AVC
Аудио кодек: AC3
Видео: AVC, High@L4.1, 1152x624, 3386 Kbps

Цитата:

Аудио 1: 48 kHz, AC3 Dolby Digital, 6 ch, 448.00 kbps avg - Дохалов
Аудио 2: 48 kHz, AC3 Dolby Digital, 6 ch, 448.00 kbps avg - Живов
Аудио 3: 48 kHz, AC3 Dolby Digital, 6 ch, 448.00 kbps avg - Eng
Аудио 4: 48 kHz, AC3 Dolby Digital, 6 ch, 448.00 kbps avg - отдельным файлом [Jacob Bellmann]
Аудио 5: 48 kHz, AC3 Dolby Digital, 2 (L&R) ch, 224.00 kbps avg - отдельным файлом [commentary by director Tom Savini]
Формат субтитров: softsub (SRT)

Цитата:

Video
ID : 1
Format : AVC
Format/Info : Advanced Video Codec
Format profile : High@L4.1
Format settings, CABAC : Yes
Format settings, ReFrames : 9 frames
Codec ID : V_MPEG4/ISO/AVC
Duration : 1h 28mn
Bit rate : 3 386 Kbps
Width : 1 152 pixels
Height : 624 pixels
Display aspect ratio : 1.85:1
Frame rate mode : Constant
Frame rate : 23.976 fps
Color space : YUV
Chroma subsampling : 4:2:0
Bit depth : 8 bits
Scan type : Progressive
Bits/(Pixel*Frame) : 0.196
Stream size : 2.09 GiB (64%)
Writing library : x264 core 130 r2273 b3065e6
Encoding settings : cabac=1 / ref=9 / deblock=1:-3:-2 / analyse=0x3:0x133 / me=tesa / subme=11 / psy=1 / psy_rd=0.98:0.02 / mixed_ref=1 / me_range=32 / chroma_me=1 / trellis=2 / 8x8dct=1 / cqm=0 / deadzone=21,11 / fast_pskip=0 / chroma_qp_offset=-3 / threads=6 / lookahead_threads=1 / sliced_threads=0 / nr=0 / decimate=0 / interlaced=0 / bluray_compat=0 / constrained_intra=0 / bframes=12 / b_pyramid=2 / b_adapt=2 / b_bias=0 / direct=1 / weightb=1 / open_gop=0 / weightp=2 / keyint=250 / keyint_min=23 / scenecut=40 / intra_refresh=0 / rc_lookahead=40 / rc=crf / mbtree=0 / crf=19.0 / qcomp=0.60 / qpmin=10 / qpmax=51 / qpstep=4 / vbv_maxrate=50000 / vbv_bufsize=62500 / crf_max=0.0 / nal_hrd=none / ip_ratio=1.40 / pb_ratio=1.25 / aq=1:1.00
Language : English
Default : Yes
Forced : No

Audio #1
ID : 2
Format : AC-3
Format/Info : Audio Coding 3
Mode extension : CM (complete main)
Format settings, Endianness : Big
Codec ID : A_AC3
Duration : 1h 28mn
Bit rate mode : Constant
Bit rate : 448 Kbps
Channel(s) : 6 channels
Channel positions : Front: L C R, Side: L R, LFE
Sampling rate : 48.0 KHz
Bit depth : 16 bits
Compression mode : Lossy
Stream size : 283 MiB (8%)
Title : AVO (Юрий Живов)
Language : Russian
Default : Yes
Forced : No

Audio #2
ID : 3
Format : AC-3
Format/Info : Audio Coding 3
Mode extension : CM (complete main)
Format settings, Endianness : Big
Codec ID : A_AC3
Duration : 1h 28mn
Bit rate mode : Constant
Bit rate : 448 Kbps
Channel(s) : 6 channels
Channel positions : Front: L C R, Side: L R, LFE
Sampling rate : 48.0 KHz
Bit depth : 16 bits
Compression mode : Lossy
Stream size : 283 MiB (8%)
Title : AVO (Вартан Дохалов)
Language : Russian
Default : No
Forced : No

Audio #3
ID : 5
Format : AC-3
Format/Info : Audio Coding 3
Mode extension : CM (complete main)
Format settings, Endianness : Big
Codec ID : A_AC3
Duration : 1h 28mn
Bit rate mode : Constant
Bit rate : 448 Kbps
Channel(s) : 6 channels
Channel positions : Front: L C R, Side: L R, LFE
Sampling rate : 48.0 KHz
Bit depth : 16 bits
Compression mode : Lossy
Stream size : 283 MiB (8%)
Language : English
Default : No
Forced : No

Audio #4
ID : 4
Format : AC-3
Format/Info : Audio Coding 3
Mode extension : CM (complete main)
Format settings, Endianness : Big
Codec ID : A_AC3
Duration : 1h 28mn
Bit rate mode : Constant
Bit rate : 448 Kbps
Channel(s) : 6 channels
Channel positions : Front: L C R, Side: L R, LFE
Sampling rate : 48.0 KHz
Bit depth : 16 bits
Compression mode : Lossy
Stream size : 283 MiB (8%)
Title : VO (Jakob Bellmann)
Language : Russian
Default : No
Forced : No

Audio #5
Format : AC-3
Format/Info : Audio Coding 3
Mode extension : CM (complete main)
Format settings, Endianness : Big
Duration : 1h 28mn
Bit rate mode : Constant
Bit rate : 224 Kbps
Channel(s) : 2 channels
Channel positions : Front: L R
Sampling rate : 48.0 KHz
Bit depth : 16 bits
Compression mode : Lossy
Stream size : 141 MiB

Text #1
ID : 6
Format : UTF-8
Codec ID : S_TEXT/UTF8
Codec ID/Info : UTF-8 Plain Text
Title : Stevvie
Language : Russian
Default : No
Forced : No

Text #2
ID : 7
Format : UTF-8
Codec ID : S_TEXT/UTF8
Codec ID/Info : UTF-8 Plain Text
Language : Russian
Default : No
Forced : No

Text #3
ID : 8
Format : UTF-8
Codec ID : S_TEXT/UTF8
Codec ID/Info : UTF-8 Plain Text
Language : English
Default : No
Forced : No

Menu
00:00:00.000 : en:00:00:00.000
00:08:25.630 : en:00:08:25.630
00:20:03.452 : en:00:20:03.452
00:27:50.043 : en:00:27:50.043
00:33:28.715 : en:00:33:28.715
00:37:06.891 : en:00:37:06.891
00:44:05.226 : en:00:44:05.226
00:53:19.988 : en:00:53:19.988
00:59:48.627 : en:00:59:48.627
01:11:31.787 : en:01:11:31.787
01:17:56.755 : en:01:17:56.755
01:25:07.978 : en:01:25:07.978









Скачать Ночь.живых.мертвецов.Night.of.the.Living.Dead.(Том.Савини).[1990.ужасы.BDRip-AVC].x2.[AVO.(Живов.Дохалов.].+.[.VO.(Jacob.Bellmann)].+.[Original.Eng].+.[Commentary].torrent без регистрации
Золото ЗОЛОТАЯ РАЗДАЧА! СКАЧАННОЕ НЕ ЗАСЧИТЫВАЕТСЯ! Золото
Дата: Зарегистрирован   [ Тип: внутренний ] Как тут cкачать?
MAGNET ссылка
MAGNET ссылка


Скачать .torrent

18 KB

Статус: проверено DHT
Скачан: торрент - 136 раз, раздача полностью - 0 раз
Размер: 3,39 GB
Оценка:  5 (Голосов: 1)
Поблагодарили: 3
Поделиться ссылкой на эту раздачу с друзьями:
В контактеFacebookОдноклассникиTwitterLivejournalМой МирLiveinternet
 

 
Показать сообщения:    


Вы не можете начинать темы
Вы не можете отвечать на сообщения
Вы не можете редактировать свои сообщения
Вы не можете удалять свои сообщения
Вы не можете голосовать в опросах
Вы не можете прикреплять файлы к сообщениям
Вы можете скачивать файлы