Loading...
Error

Скачать Дорогая, я уменьшил детей / Honey, I Shrunk the Kids (1989) HDTVRip][MVO]+[AVO(А. Михалёв)]+[Оригинал] торрент без регистрации

 
Статистика раздачи
Размер:  1,46 GB   |    Скачан:  124 раза
Сидов:  23  [  0 KB/s  ]   Личеров:  1  [  0 KB/s  ]  
 
Автор Сообщение

Marsianka

[] 

Страна: США
Производство: Buena Vista Pictures, Doric Productions, Silver Screen Partners III, Walt Disney Pictures

Жанр: фантастика, комедия, приключения, семейный
Год выпуска: 1989
Продолжительность: 01:29:42

Перевод: Профессиональный (многоголосый закадровый),
Авторский (одноголосый закадровый)
А. Михалёв
Оригинальная аудиодорожка: английский
Cубтитры: нет

Режиссер: Джо Джонстон / Joe Johnston

В ролях:
Рик Морэнис, Мэтт Фрюэр, Марша Стрэссмен, Кристин Сазерленд, Томас Уилсон Браун, Джэред Раштон, Эми ОНил, Роберт Оливери, Карл Стивен, Марк Л. Тейлор...

Описание:
Последнее изобретение великого новатора профессора Залински электромагнитная машина которая может уменьшать предметы. Когда чудо техники, наконец, заработало, этими предметами оказались дети изобретателя, попавшие в поле действия прибора. Они и так не отличались гигантским ростом, а теперь еще и сократились в размере настолько, что их вообще не стало видно. Ничего не подозревающий отец опять же совершенно случайно выбрасывает своих отпрысков в мусорное ведро. Новоиспеченным лилипутам нужно выбраться из помойки как можно быстрее пока их не затоптали тараканы и вернуться домой чтобы обнять заботливого папочку

Исходник: HDTVRip 720p
Тип релиза: HDTVRip
Контейнер: AVI

Видео: 720x384 (1,85:1), 25 fps, XviD ~ 1516 kbps avg, 0.219 bit/pixel
Аудио: 48 kHz, Dolby Digital AC3 2.0, 160 kbps MVO
Аудио: 48 kHz, Dolby Digital AC3 5.1, 448 kbps А. Михалёв
Аудио: 48 kHz, Dolby Digital AC3 2.0, 192 kbps Английский
Раздача от:

Общее
Полное имя : Dorogaya,ya.umenshil.detey.1989.HDTVRip_[New-team]_by_AVP_Studio.avi
Формат : AVI
Формат/Информация : Audio Video Interleave
Размер файла : 1,46 Гбайт
Продолжительность : 1 ч. 29 м.
Общий поток : 2335 Кбит/сек
Программа кодирования : VirtualDubModRus 1.5.10.2 (build 2542/release)
Библиотека кодирования : VirtualDubMod build 2542/release

Видео
Идентификатор : 0
Формат : MPEG-4 Visual
Профиль формата : Advanced Simple@L5
Параметр BVOP формата : 1
Параметр QPel формата : Нет
Параметр GMC формата : Без точки перехода
Параметр матрицы формата : Выборочная
Идентификатор кодека : XVID
Идентификатор кодека/Подсказка : XviD
Продолжительность : 1 ч. 29 м.
Битрейт : 1516 Кбит/сек
Ширина : 720 пикселей
Высота : 384 пикселя
Соотношение сторон : 1,85:1
Частота кадров : 25,000 кадров/сек
Цветовое пространство : YUV
Субдискретизация насыщенности : 4:2:0
Битовая глубина : 8 бит
Тип развёртки : Прогрессивная
Метод сжатия : С потерями
Бит/(Пиксели*Кадры) : 0.219
Размер потока : 973 Мбайт (65%)
Библиотека кодирования : XviD 73

Аудио #1
Идентификатор : 1
Формат : AC-3
Формат/Информация : Audio Coding 3
Расширение режима : CM (complete main)
Параметр Endianness формата : Big
Идентификатор кодека : 2000
Продолжительность : 1 ч. 29 м.
Вид битрейта : Постоянный
Битрейт : 160 Кбит/сек
Каналы : 2 канала
Расположение каналов : Front: L R
Частота : 48,0 КГц
Битовая глубина : 16 бит
Метод сжатия : С потерями
Размер потока : 103 Мбайт (7%)
Выравнивание : Разделение по промежуткам
Продолжительность промежутка : 40 мс. (1,00 видеокадр)
Время предзагрузки промежутка : 500 мс.

Аудио #2
Идентификатор : 2
Формат : AC-3
Формат/Информация : Audio Coding 3
Расширение режима : CM (complete main)
Параметр Endianness формата : Big
Идентификатор кодека : 2000
Продолжительность : 1 ч. 29 м.
Вид битрейта : Постоянный
Битрейт : 448 Кбит/сек
Каналы : 6 каналов
Расположение каналов : Front: L C R, Side: L R, LFE
Частота : 48,0 КГц
Битовая глубина : 16 бит
Метод сжатия : С потерями
Размер потока : 287 Мбайт (19%)
Выравнивание : Разделение по промежуткам
Продолжительность промежутка : 40 мс. (1,00 видеокадр)
Время предзагрузки промежутка : 500 мс.

Аудио #3
Идентификатор : 3
Формат : AC-3
Формат/Информация : Audio Coding 3
Профиль формата : Dolby Digital
Расширение режима : CM (complete main)
Параметр Endianness формата : Big
Идентификатор кодека : 2000
Продолжительность : 1 ч. 29 м.
Вид битрейта : Постоянный
Битрейт : 192 Кбит/сек
Каналы : 2 канала
Расположение каналов : Front: L R
Частота : 48,0 КГц
Битовая глубина : 16 бит
Метод сжатия : С потерями
Размер потока : 123 Мбайт (8%)
Выравнивание : Разделение по промежуткам
Продолжительность промежутка : 40 мс. (1,00 видеокадр)
Время предзагрузки промежутка : 500 мс



Скачать Дорогая.я.уменьшил.детей.Honey.I.Shrunk.the.Kids.(1989).HDTVRip][MVO]+[AVO(А.Михалёв)]+[Оригинал].torrent без регистрации
Золото ЗОЛОТАЯ РАЗДАЧА! СКАЧАННОЕ НЕ ЗАСЧИТЫВАЕТСЯ! Золото
Дата: Зарегистрирован   [ Тип: внешний ] Как тут cкачать?
MAGNET ссылка
MAGNET ссылка


Скачать .torrent

15 KB

Статус: проверено DHT
Скачан: торрент - 124 раз, раздача полностью - 55 раз
Размер: 1,46 GB
Оценка:  5 (Голосов: 1)
Поблагодарили: 3
Поделиться ссылкой на эту раздачу с друзьями:
В контактеFacebookОдноклассникиTwitterLivejournalМой МирLiveinternet
 

 
Показать сообщения:    


Вы не можете начинать темы
Вы не можете отвечать на сообщения
Вы не можете редактировать свои сообщения
Вы не можете удалять свои сообщения
Вы не можете голосовать в опросах
Вы не можете прикреплять файлы к сообщениям
Вы можете скачивать файлы