Loading...
Error

Скачать Аферисты Дик и Джейн / Fun with Dick and Jane (Дин Паризо) [2005, комедия, криминал, ремейк, HDTVRip-AVС] [Dub]+[DVO]+[Оригинал]+[Sub] торрент без регистрации

 
Статистика раздачи
Размер:  2,19 GB   |    Скачан:  169 раз
Сидов:  1  [  0 KB/s  ]  
 
Автор Сообщение

Marsianka

[] 

Информация о фильме
Название: Аферисты Дик и Джейн
Оригинальное название: Fun with Dick and Jane
Год выхода: 2005
Жанр: комедия, криминал, ремейк
Режиссер: Дин Паризо
В ролях: Джим Керри, Теа Леони, Алек Болдуин, Ричард Дженкинс, Энджи Хэрмон, Джон Майкл Хиггинс, Ричард Бёрджи, Карлос Джекотт, Aaron Michael Drozin, Глория Гараюа

О фильме:
Дик Харпер и его молодая жена Джейн привыкли жить красиво. Но в тот момент, когда они затевают строительство бассейна, Дика неожиданно увольняют, оставив его с непогашенной задолжностью за дом в $70 тыс.Понимая, что долго скрывать от соседей бедственность своего положения им не удастся, парочка промышлять мелким грабежом, постепенно входя во вкус...




Страна: Дин Паризо
Студия: Columbia Pictures Corporation, Imagine Entertainment, JC 23 Entertainment
Продолжительность: 01:26:40
Перевод: Дублированный, профессиональный двухголосый

Файл
Кодек: MPEG-4 AVC
Качество: HDTVRip-AVC
Видео: 2400 Кбит/с, 1024x424
Звук: Русский (АС3, 6 ch, 384 Кбит/с), русский, английский (АС3, 6 ch, 448 Кбит/с)
Субтитры: Английские
Рип от StarbirS
За исходник спасибо KACPER

Аудио: Russian: AC3, 48 kHz, AC3, 3/2 (L,C,R,l,r) + LFE ch, ~384.00 kbps avg - Дублированный (Невафильм)
Аудио: Russian: AC3, 48 kHz, AC3, 3/2 (L,C,R,l,r) + LFE ch, ~448.00 kbps avg - Профессиональный двухголосый (П.Гланц, И.Королева)
Аудио: English: AC3, 48 kHz, AC3, 3/2 (L,C,R,l,r) + LFE ch, ~384.00 kbps avg - Оригинал

Субтитры: Английские

x264 [info]: frame I:1272 Avg QP:13.92 size: 72185
x264 [info]: frame P:27973 Avg QP:17.17 size: 27764
x264 [info]: frame B:100653 Avg QP:20.07 size: 6852
x264 [info]: consecutive B-frames: 2.1% 3.0% 10.1% 14.7% 8.8% 57.8% 2.0% 0.4% 0.7% 0.3%
Формат : Matroska
Версия формата : Version 4 / Version 2
Размер файла : 2,19 Гбайт
Продолжительность : 1 ч. 26 м.
Общий поток : 3617 Кбит/сек
Название фильма : Fun.with.Dick.and.Jane.2005.D.P.HDTVRip.(AVC)
Дата кодирования : UTC 2014-04-06 15:50:54
Программа кодирования : mkvmerge v6.8.0 ('Theme for Great Cities') 64bit built on Mar 2 2014 21:34:26
Библиотека кодирования : libebml v1.3.0 + libmatroska v1.4.1

Видео
Идентификатор : 1
Формат : AVC
Формат/Информация : Advanced Video Codec
Профиль формата : High@L4.1
Параметр CABAC формата : Да
Параметр ReFrames формата : 11 кадров
Идентификатор кодека : V_MPEG4/ISO/AVC
Продолжительность : 1 ч. 26 м.
Битрейт : 2400 Кбит/сек
Ширина : 1024 пикселя
Высота : 424 пикселя
Соотношение сторон : 2,40:1
Режим частоты кадров : Постоянный
Частота кадров : 25,000 кадров/сек
Цветовое пространство : YUV
Субдискретизация насыщенности : 4:2:0
Битовая глубина : 8 бит
Тип развёртки : Прогрессивная
Бит/(Пиксели*Кадры) : 0.221
Размер потока : 1,41 Гбайт (64%)
Заголовок : Fun.with.Dick.and.Jane.2005.D.P.HDTVRip.(AVC).by.StarbirS
Библиотека кодирования : x264 core 138 r2358 9e941d1
Настройки программы : cabac=1 / ref=11 / deblock=1:-3:-3 / analyse=0x3:0x113 / me=umh / subme=10 / psy=1 / psy_rd=1.00:0.00 / mixed_ref=1 / me_range=32 / chroma_me=1 / trellis=2 / 8x8dct=1 / cqm=0 / deadzone=21,11 / fast_pskip=1 / chroma_qp_offset=-2 / threads=6 / lookahead_threads=1 / sliced_threads=0 / nr=0 / decimate=1 / interlaced=0 / bluray_compat=0 / constrained_intra=0 / bframes=9 / b_pyramid=2 / b_adapt=2 / b_bias=0 / direct=3 / weightb=1 / open_gop=1 / weightp=2 / keyint=240 / keyint_min=23 / scenecut=40 / intra_refresh=0 / rc_lookahead=40 / rc=2pass / mbtree=1 / bitrate=2400 / ratetol=1.0 / qcomp=0.60 / qpmin=0 / qpmax=69 / qpstep=4 / cplxblur=20.0 / qblur=0.5 / ip_ratio=1.40 / aq=1:1.00
Язык : English
Default : Да
Forced : Нет

Аудио #1
Идентификатор : 2
Формат : AC-3
Формат/Информация : Audio Coding 3
Расширение режима : CM (complete main)
Параметр Endianness формата : Big
Идентификатор кодека : A_AC3
Продолжительность : 1 ч. 26 м.
Вид битрейта : Постоянный
Битрейт : 384 Кбит/сек
Каналы : 6 каналов
Расположение каналов : Front: L C R, Side: L R, LFE
Частота : 48,0 КГц
Битовая глубина : 16 бит
Метод сжатия : С потерями
Размер потока : 238 Мбайт (11%)
Заголовок : Дублированный (Невафильм)
Язык : Russian
Default : Да
Forced : Нет

Аудио #2
Идентификатор : 3
Формат : AC-3
Формат/Информация : Audio Coding 3
Расширение режима : CM (complete main)
Параметр Endianness формата : Big
Идентификатор кодека : A_AC3
Продолжительность : 1 ч. 26 м.
Вид битрейта : Постоянный
Битрейт : 448 Кбит/сек
Каналы : 6 каналов
Расположение каналов : Front: L C R, Side: L R, LFE
Частота : 48,0 КГц
Битовая глубина : 16 бит
Метод сжатия : С потерями
Размер потока : 277 Мбайт (12%)
Заголовок : Профессиональный двухголосый (П.Гланц, И.Королева)
Язык : Russian
Default : Нет
Forced : Нет

Аудио #3
Идентификатор : 4
Формат : AC-3
Формат/Информация : Audio Coding 3
Расширение режима : CM (complete main)
Параметр Endianness формата : Big
Идентификатор кодека : A_AC3
Продолжительность : 1 ч. 26 м.
Вид битрейта : Постоянный
Битрейт : 384 Кбит/сек
Каналы : 6 каналов
Расположение каналов : Front: L C R, Side: L R, LFE
Частота : 48,0 КГц
Битовая глубина : 16 бит
Метод сжатия : С потерями
Размер потока : 238 Мбайт (11%)
Заголовок : Оригинал
Язык : English
Default : Нет
Forced : Нет

Текст
Идентификатор : 5
Формат : UTF-8
Идентификатор кодека : S_TEXT/UTF8
Идентификатор кодека/Информация : UTF-8 Plain Text
Заголовок : Английские
Default : Да
Forced : Нет



Скачать Аферисты.Дик.и.Джейн.Fun.with.Dick.and.Jane.(Дин.Паризо).[2005.комедия.криминал.ремейк.HDTVRip-AVС].[Dub]+[DVO]+[Оригинал]+[Sub].torrent без регистрации
Золото ЗОЛОТАЯ РАЗДАЧА! СКАЧАННОЕ НЕ ЗАСЧИТЫВАЕТСЯ! Золото
Дата: Зарегистрирован   [ Тип: внутренний ] Как тут cкачать?
MAGNET ссылка
MAGNET ссылка


Скачать .torrent

11 KB

Статус: проверено DHT
Скачан: торрент - 169 раз, раздача полностью - 60 раз
Размер: 2,19 GB
Оценка:  5 (Голосов: 1)
Поблагодарили: 5
Поделиться ссылкой на эту раздачу с друзьями:
В контактеFacebookОдноклассникиTwitterLivejournalМой МирLiveinternet
 

 

Shara

[] 

Смешное кино, понравилось ay
 
Показать сообщения:    


Вы не можете начинать темы
Вы не можете отвечать на сообщения
Вы не можете редактировать свои сообщения
Вы не можете удалять свои сообщения
Вы не можете голосовать в опросах
Вы не можете прикреплять файлы к сообщениям
Вы можете скачивать файлы