Loading...
Error

Скачать Маска / The Mask (Чак Расселл) [1994, комедия, BDRip-AVC] [MVO]x7+[DVO]x3+[AVO]x4+[Sub]x2 торрент без регистрации

 
Статистика раздачи
Размер:  5,18 GB   |    Скачан:  151 раз
Сидов:  1  [  0 KB/s  ]  
 
Автор Сообщение

Marsianka

[] 

Маска
| The Mask |


Информация о фильме
Название: Маска
Оригинальное название: The Mask
Год выхода: 1994
Жанр: комедия
Режиссер: Чак Расселл
В ролях: Джим Керри, Кэмерон Диаз, Питер Ригерт, Питер Грин, Эми Ясбек, Ричард Джени, Тим Бэгли, Нэнси Фиш, Джонни Уильямс

О фильме:
Скромный, застенчивый служащий банка закомплексован настолько, что чувствует себя неуверенно с красивыми девушками. Волею судьбы к нему попадает волшебная маска, и Стенли Ипкис приобретает способность превращаться в неуязвимое мультяшное существо из забавных комиксов. Он становится супергероем, готовым бороться с преступностью, как Бэтмен. Итак, днем он по-прежнему скромный и незадачливый служащий, а по ночам супермен



Страна: США
Студия: Dark Horse Entertainment, New Line Cinema
Продолжительность: 01:41:12
Перевод: Профессиональный многоголосый, профессиональный двухголосый, авторский

Файл
Кодек: h264
Качество: BDRip (AVC)
Видео: 2141 Кбит/с, 1024x576, 23.976 кадр/с
1: Русский (AC3, 6 ch, 384 Кбит/с) Профессиональный многоголосый [CP-Digital (Медиа-Комплекс)]
2: Русский (AC3, 6 ch, 384 Кбит/с) Профессиональный двухголосый [Superbit]
3: Русский (AC3, 6 ch, 384 Кбит/с) Авторский одноголосый (Павел Санаев)
4: Английский (AC3, 6 ch, 384 Кбит/с)
Отдельно:
5: Русский (AC3, 6 ch, 448 Кбит/с) Профессиональный многоголосый [Киномания]
6: Русский (AC3, 6 ch, 384 Кбит/с) Профессиональный многоголосый
7: Русский (AC3, 6 ch, 384 Кбит/с) Профессиональный многоголосый [Максим Латышев и студия]
8: Русский (AC3, 2 ch, 192 Кбит/с) Профессиональный многоголосый [НТВ+]
9: Русский (AC3, 2 ch, 192 Кбит/с) Профессиональный многоголосый [НТВ/ТНТ]
10: Русский (AC3, 1 ch, 192 Кбит/с) Профессиональный многоголосый [Премьер Видео Фильм]
11: Русский (AC3, 2 ch, 192 Кбит/с) Профессиональный двухголосый [TV1000 (SDI Media)]
12: Русский (AC3, 6 ch, 384 Кбит/с) Авторский одноголосый [Василий Горчаков]
13: Русский (AC3, 6 ch, 384 Кбит/с) Авторский одноголосый [Юрий Живов]
14: Русский (AC3, 6 ch, 384 Кбит/с) Авторский одноголосый [Борис Федоров]
15: Русский (AC3, 6 ch, 384 Кбит/с) Авторский одноголосый [Диктор CDV]
16: Украинский (AC3, 2 ch, 192 Кбит/с) Профессиональный двухголосый [Новый канал]

Субтитры: Русские (форсированные, R5, Subzero @ Media Studio, Ray @ r7.org.ru), английские

--------------------------------------------------------------------------------------------
x264 [info]: frame I:1128 Avg QP:15.60 size: 61556
x264 [info]: frame P:33069 Avg QP:18.70 size: 22155
x264 [info]: frame B:111397 Avg QP:20.46 size: 7382
x264 [info]: consecutive B-frames: 2.3% 3.8% 8.5% 24.7% 14.7% 37.3% 3.9% 3.2% 0.7% 0.6% 0.3%
--------------------------------------------------------------------------------------------

Полное имя : The.Mask.1994.x264.BDRip-AVC.0ptimus.mkv
Формат : Matroska
Версия формата : Version 2
Размер файла : 2,60 Гбайт
Продолжительность : 1 ч. 41 м.
Общий поток : 3677 Кбит/сек
Название фильма : Маска / The Mask (1994) -=by 0ptimus=-
Дата кодирования : UTC 2014-04-08 13:15:13
Программа кодирования : mkvmerge v6.6.0 ('The Edge Of The In Between') built on Dec 1 2013 17:55:00
Библиотека кодирования : libebml v1.3.0 + libmatroska v1.4.1

Видео
Идентификатор : 1
Формат : AVC
Формат/Информация : Advanced Video Codec
Профиль формата : High@L4.1
Параметр CABAC формата : Да
Параметр ReFrames формата : 8 кадров
Идентификатор кодека : V_MPEG4/ISO/AVC
Продолжительность : 1 ч. 41 м.
Битрейт : 2141 Кбит/сек
Ширина : 1024 пикселя
Высота : 576 пикселей
Соотношение сторон : 16:9
Режим частоты кадров : Постоянный
Частота кадров : 23,976 кадра/сек
Цветовое пространство : YUV
Субдискретизация насыщенности : 4:2:0
Битовая глубина : 8 бит
Тип развёртки : Прогрессивная
Бит/(Пиксели*Кадры) : 0.151
Размер потока : 1,46 Гбайт (56%)
Заголовок : Rip by 0ptimus
Библиотека кодирования : x264 core 133 r2334 a3ac64b
Настройки программы : cabac=1 / ref=8 / deblock=1:-3:-3 / analyse=0x3:0x113 / me=umh / subme=11 / psy=1 / psy_rd=1.00:0.20 / mixed_ref=1 / me_range=48 / chroma_me=1 / trellis=2 / 8x8dct=1 / cqm=0 / deadzone=21,11 / fast_pskip=0 / chroma_qp_offset=-3 / threads=4 / lookahead_threads=1 / sliced_threads=0 / nr=0 / decimate=0 / interlaced=0 / bluray_compat=0 / constrained_intra=0 / bframes=10 / b_pyramid=2 / b_adapt=2 / b_bias=0 / direct=3 / weightb=1 / open_gop=0 / weightp=2 / keyint=240 / keyint_min=23 / scenecut=40 / intra_refresh=0 / rc_lookahead=40 / rc=2pass / mbtree=0 / bitrate=2141 / ratetol=1.0 / qcomp=0.60 / qpmin=0 / qpmax=69 / qpstep=4 / cplxblur=20.0 / qblur=0.5 / vbv_maxrate=50000 / vbv_bufsize=50000 / nal_hrd=none / ip_ratio=1.40 / pb_ratio=1.30 / aq=1:1.00
Язык : English
Default : Да
Forced : Да

Аудио #1
Идентификатор : 2
Формат : AC-3
Формат/Информация : Audio Coding 3
Расширение режима : CM (complete main)
Параметр Endianness формата : Big
Идентификатор кодека : A_AC3
Продолжительность : 1 ч. 41 м.
Вид битрейта : Постоянный
Битрейт : 384 Кбит/сек
Каналы : 6 каналов
Расположение каналов : Front: L C R, Side: L R, LFE
Частота : 48,0 КГц
Битовая глубина : 16 бит
Метод сжатия : С потерями
Размер потока : 278 Мбайт (10%)
Заголовок : Многоголосый [CP-Digital (Медиа-Комплекс)] AC3 5.1 @ 384 kbps
Язык : Russian
Default : Да
Forced : Да

Аудио #2
Идентификатор : 3
Формат : AC-3
Формат/Информация : Audio Coding 3
Расширение режима : CM (complete main)
Параметр Endianness формата : Big
Идентификатор кодека : A_AC3
Продолжительность : 1 ч. 41 м.
Вид битрейта : Постоянный
Битрейт : 384 Кбит/сек
Каналы : 6 каналов
Расположение каналов : Front: L C R, Side: L R, LFE
Частота : 48,0 КГц
Битовая глубина : 16 бит
Метод сжатия : С потерями
Размер потока : 278 Мбайт (10%)
Заголовок : Двухголосый [Superbit] AC3 5.1 @ 384 kbps
Язык : Russian
Default : Нет
Forced : Нет

Аудио #3
Идентификатор : 4
Формат : AC-3
Формат/Информация : Audio Coding 3
Расширение режима : CM (complete main)
Параметр Endianness формата : Big
Идентификатор кодека : A_AC3
Продолжительность : 1 ч. 41 м.
Вид битрейта : Постоянный
Битрейт : 384 Кбит/сек
Каналы : 6 каналов
Расположение каналов : Front: L C R, Side: L R, LFE
Частота : 48,0 КГц
Битовая глубина : 16 бит
Метод сжатия : С потерями
Размер потока : 278 Мбайт (10%)
Заголовок : Авторский [Павел Санаев] AC3 5.1 @ 384 kbps
Язык : Russian
Default : Нет
Forced : Нет

Аудио #4
Идентификатор : 5
Формат : AC-3
Формат/Информация : Audio Coding 3
Расширение режима : CM (complete main)
Параметр Endianness формата : Big
Идентификатор кодека : A_AC3
Продолжительность : 1 ч. 41 м.
Вид битрейта : Постоянный
Битрейт : 384 Кбит/сек
Каналы : 6 каналов
Расположение каналов : Front: L C R, Side: L R, LFE
Частота : 48,0 КГц
Битовая глубина : 16 бит
Метод сжатия : С потерями
Размер потока : 278 Мбайт (10%)
Заголовок : AC3 5.1 @ 384 kbps
Язык : English
Default : Нет
Forced : Нет

Текст #1
Идентификатор : 6
Формат : UTF-8
Идентификатор кодека : S_TEXT/UTF8
Идентификатор кодека/Информация : UTF-8 Plain Text
Заголовок : Форсированные [Надписи, песни]
Язык : Russian
Default : Да
Forced : Да

Текст #2
Идентификатор : 7
Формат : UTF-8
Идентификатор кодека : S_TEXT/UTF8
Идентификатор кодека/Информация : UTF-8 Plain Text
Заголовок : R5
Язык : Russian
Default : Нет
Forced : Нет

Текст #3
Идентификатор : 8
Формат : UTF-8
Идентификатор кодека : S_TEXT/UTF8
Идентификатор кодека/Информация : UTF-8 Plain Text
Заголовок : Ray @ r7.org.ru
Язык : Russian
Default : Нет
Forced : Нет

Текст #4
Идентификатор : 9
Формат : UTF-8
Идентификатор кодека : S_TEXT/UTF8
Идентификатор кодека/Информация : UTF-8 Plain Text
Заголовок : Subzero @ Media Studio
Язык : Russian
Default : Нет
Forced : Нет

Текст #5
Идентификатор : 10
Формат : UTF-8
Идентификатор кодека : S_TEXT/UTF8
Идентификатор кодека/Информация : UTF-8 Plain Text
Язык : English
Default : Нет
Forced : Нет

Меню
00:00:00.000 : en:Main Titles/the Nicest Guy
00:03:38.342 : en:Tina Carlyle
00:06:59.376 : en:The Loaner
00:09:28.693 : en:Congo Bongo Club
00:12:18.028 : en:The Mask
00:14:55.769 : en:A Big Nothing
00:17:48.609 : en:Smokin!
00:22:53.872 : en:Next Morning
00:26:33.550 : en:Peggy Brandt
00:30:34.623 : en:Golf Practice
00:33:57.368 : en:Somebody Stop Me
00:37:26.035 : en:Baby Ain't I Good to You
00:39:43.255 : en:Rock This Joint
00:42:54.612 : en:Award Winning
00:46:03.051 : en:Kellaway
00:48:35.078 : en:50 Grand
00:52:56.464 : en:Loki
00:55:48.344 : en:Landfill Park
01:00:47.310 : en:Cuban Pete
01:04:04.715 : en:What a Rush!
01:09:00.719 : en:Love-Crazy Wild Man
01:16:01.180 : en:Milo to the Rescue
01:19:52.621 : en:Casino Night
01:26:11.832 : en:Milo and the Mask
01:28:49.741 : en:Spicy Meatball
01:32:57.655 : en:Smokin!/End Credits
01:41:12.274 : en:
Релиз от:



Скачать Маска.The.Mask.(Чак.Расселл).[1994.комедия.BDRip-AVC].[MVO]x7+[DVO]x3+[AVO]x4+[Sub]x2.torrent без регистрации
Золото ЗОЛОТАЯ РАЗДАЧА! СКАЧАННОЕ НЕ ЗАСЧИТЫВАЕТСЯ! Золото
Дата: Зарегистрирован   [ Тип: внутренний ] Как тут cкачать?
MAGNET ссылка
MAGNET ссылка


Скачать .torrent

29 KB

Статус: проверено DHT
Скачан: торрент - 151 раз, раздача полностью - 16 раз
Размер: 5,18 GB
Оценка:  5 (Голосов: 2)
Поблагодарили: 3
Поделиться ссылкой на эту раздачу с друзьями:
В контактеFacebookОдноклассникиTwitterLivejournalМой МирLiveinternet
 

 
Показать сообщения:    


Вы не можете начинать темы
Вы не можете отвечать на сообщения
Вы не можете редактировать свои сообщения
Вы не можете удалять свои сообщения
Вы не можете голосовать в опросах
Вы не можете прикреплять файлы к сообщениям
Вы можете скачивать файлы