Loading...
Error

Скачать Защита / Защищая твою жизнь / Defending Your Life (Альберт Брукс) [1991, комедия, мелодрама, WEB-DLRip-AVC] [DVO]+[AVO]+[Оригинал]x2+[Sub] торрент без регистрации

 
Статистика раздачи
Размер:  2,87 GB   |    Скачан:  128 раз
Сидов:  2  [  0 KB/s  ]  
 
Автор Сообщение

Marsianka

[] 

Информация о фильме
Название: Защита / Защищая твою жизнь
Оригинальное название: Defending Your Life
Год выхода: 1991
Жанр: комедия, мелодрама
Режиссер: Альберт Брукс
В ролях: Альберт Брукс, Мэрил Стрип, Рип Торн, Ли Грант, Бак Генри, Джордж Уоллес, Лиллиан Леман, Питер Шак, Шарли Стюарт, Ширли МакЛейн

О фильме:
Что происходит с нами после того, как мы умираем? Внятного ответа не даст никто. Тем более, что этот вопрос меньше всего интересовал нашего героя, Дэниэла Миллера (Альберт Брукс), когда он вальяжно колесил по бульвару Лос-Анджелеса на своём новеньком «БМВ», слушая, как Барбара Стрейзанд поёт о том, что "что-то грядёт". И, надо заметить, что Стрейзанд не обманула бедолагу Миллера: этим "что-то" оказался автобус, после сокрушительного столкновения с которым, Дэниэл сразу отправился на тот свет. Но самое смешное, что проблемы героя ещё только начинались! Кто бы мог подумать, что на том свете, в Городе Страшного суда, где Дэниэлу предстоит основательное юридическое разбирательство за деяния прошлой жизни, герой встретит прекрасную женщину по имени Джулия (Мэрил Стрип), которая станет любовью всей его... смерти! Вот это жизнь, дорогие зрители! Впрочем, одно ясно наверняка - посмеяться после смерти будет над чем!



Страна: США
Студия: Geffen Pictures
Продолжительность: 01:51:14
Перевод: Профессиональный двухголосый, авторский

Файл
Кодек: MPEG-4 AVC
Качество: WEB-DLRip-AVC
Видео: 2899 Кбит/с, 1024x576
Звук: Русский (MP3, 2 ch, 128 Кбит/с), (AAC, 2 ch, 160 Кбит/с), английский (AAC, 2 ch, 160 Кбит/с), (AC3, 6 ch, 384 Кбит/с)
Субтитры: Русские
Рип от StarbirS
За исходник спасибо Sunny
За дорожку с переводом Михалева спасибо tеko

Аудио#1: Russian: 48 kHz, AAC3, 2/0 (L,R) ch, ~160 kbps avg - Профессиональный двухголосый (iTunes Russia)
Аудио#2: Russian: 48 kHz, MP3, 2/0 (L,R) ch, ~128 kbps avg - Авторский одноголосый (А.Михалев)
Аудио#3: English: 48 kHz, AAC3, 2/0 (L,R) ch, ~160 kbps avg - Оригинал (iTunes)
Аудио#4: English: 48 kHz, AC3, 3/2 (L,C,R,l,r) + LFE ch, ~384 kbps avg - Оригинал (HDTV)

Субтитры: Русские (форс., полные) (iTunes)

x264 [info]: frame I:1293 Avg QP:13.52 size: 94032
x264 [info]: frame P:40801 Avg QP:15.62 size: 32944
x264 [info]: frame B:117913 Avg QP:18.87 size: 8071
x264 [info]: consecutive B-frames: 1.3% 3.2% 4.4% 78.8% 6.5% 4.7% 0.6% 0.4% 0.1% 0.1%
Формат : Matroska
Версия формата : Version 4 / Version 2
Размер файла : 2,87 Гбайт
Продолжительность : 1 ч. 51 м.
Общий поток : 3693 Кбит/сек
Название фильма : Defending.Your.Life.1992.P.A.WEB-DLRip.(AVC)
Дата кодирования : UTC 2014-04-08 06:15:05
Программа кодирования : mkvmerge v6.8.0 ('Theme for Great Cities') 64bit built on Mar 2 2014 21:34:26
Библиотека кодирования : libebml v1.3.0 + libmatroska v1.4.1

Видео
Идентификатор : 1
Формат : AVC
Формат/Информация : Advanced Video Codec
Профиль формата : High@L4.1
Параметр CABAC формата : Да
Параметр ReFrames формата : 11 кадров
Идентификатор кодека : V_MPEG4/ISO/AVC
Продолжительность : 1 ч. 51 м.
Номинальный битрейт : 2899 Кбит/сек
Ширина : 1024 пикселя
Высота : 576 пикселей
Соотношение сторон : 16:9
Режим частоты кадров : Постоянный
Частота кадров : 23,976 кадра/сек
Цветовое пространство : YUV
Субдискретизация насыщенности : 4:2:0
Битовая глубина : 8 бит
Тип развёртки : Прогрессивная
Бит/(Пиксели*Кадры) : 0.205
Заголовок : Defending.Your.Life.1992.P.A.WEB-DLRip.(AVC).by.StarbirS
Библиотека кодирования : x264 core 138 r2358 9e941d1
Настройки программы : cabac=1 / ref=11 / deblock=1:-2:-2 / analyse=0x3:0x113 / me=umh / subme=10 / psy=1 / psy_rd=1.00:0.00 / mixed_ref=1 / me_range=32 / chroma_me=1 / trellis=2 / 8x8dct=1 / cqm=0 / deadzone=21,11 / fast_pskip=1 / chroma_qp_offset=-2 / threads=6 / lookahead_threads=1 / sliced_threads=0 / nr=0 / decimate=1 / interlaced=0 / bluray_compat=0 / constrained_intra=0 / bframes=9 / b_pyramid=2 / b_adapt=2 / b_bias=0 / direct=3 / weightb=1 / open_gop=1 / weightp=2 / keyint=230 / keyint_min=22 / scenecut=40 / intra_refresh=0 / rc_lookahead=40 / rc=2pass / mbtree=1 / bitrate=2899 / ratetol=1.0 / qcomp=0.60 / qpmin=0 / qpmax=69 / qpstep=4 / cplxblur=20.0 / qblur=0.5 / ip_ratio=1.40 / aq=1:1.00
Язык : English
Default : Да
Forced : Нет

Аудио #1
Идентификатор : 2
Формат : AAC
Формат/Информация : Advanced Audio Codec
Профиль формата : LC
Идентификатор кодека : A_AAC
Продолжительность : 1 ч. 51 м.
Каналы : 2 канала
Расположение каналов : Front: L R
Частота : 48,0 КГц
Метод сжатия : С потерями
Заголовок : Профессиональный двухголосый (iTunes Russia)
Язык : Russian
Default : Да
Forced : Нет

Аудио #2
Идентификатор : 3
Формат : MPEG Audio
Версия формата : Version 1
Профиль формата : Layer 3
Идентификатор кодека : A_MPEG/L3
Идентификатор кодека/Подсказка : MP3
Продолжительность : 1 ч. 51 м.
Вид битрейта : Постоянный
Битрейт : 128 Кбит/сек
Каналы : 2 канала
Частота : 48,0 КГц
Метод сжатия : С потерями
Задержка видео : 1 с. 0 мс.
Размер потока : 102 Мбайт (3%)
Заголовок : Авторский одноголосый (А.Михалев)
Библиотека кодирования : LAME3.98r
Настройки программы : -m s -V 4 -q 2 -lowpass 17 -b 128
Язык : Russian
Default : Нет
Forced : Нет

Аудио #3
Идентификатор : 4
Формат : AAC
Формат/Информация : Advanced Audio Codec
Профиль формата : LC
Идентификатор кодека : A_AAC
Продолжительность : 1 ч. 51 м.
Каналы : 2 канала
Расположение каналов : Front: L R
Частота : 48,0 КГц
Метод сжатия : С потерями
Заголовок : Оригинал (iTunes)
Язык : English
Default : Нет
Forced : Нет

Аудио #4
Идентификатор : 5
Формат : AC-3
Формат/Информация : Audio Coding 3
Расширение режима : CM (complete main)
Параметр Endianness формата : Big
Идентификатор кодека : A_AC3
Продолжительность : 1 ч. 51 м.
Вид битрейта : Постоянный
Битрейт : 384 Кбит/сек
Каналы : 6 каналов
Расположение каналов : Front: L C R, Side: L R, LFE
Частота : 48,0 КГц
Битовая глубина : 16 бит
Метод сжатия : С потерями
Задержка видео : 1 с. 0 мс.
Размер потока : 306 Мбайт (10%)
Заголовок : Оригинал (HDTV)
Язык : English
Default : Нет
Forced : Нет

Текст #1
Идентификатор : 6
Формат : UTF-8
Идентификатор кодека : S_TEXT/UTF8
Идентификатор кодека/Информация : UTF-8 Plain Text
Заголовок : Русские (форс.)
Язык : Russian
Default : Да
Forced : Нет

Текст #2
Идентификатор : 7
Формат : UTF-8
Идентификатор кодека : S_TEXT/UTF8
Идентификатор кодека/Информация : UTF-8 Plain Text
Заголовок : Русские (полные)
Язык : Russian
Default : Нет
Forced : Нет

Меню
00:00:00.000 : en:Happy Birthday
00:03:02.000 : en:New Car
00:05:17.000 : en:Something's Coming...
00:05:25.000 : en:Credits
00:08:48.000 : en:Judgment City
00:12:09.000 : en:Diamond's Wake-Up Call
00:17:13.000 : en:Dog Stories
00:19:53.000 : en:Dunce of the Universe
00:24:59.000 : en:What Smart People Eat
00:28:58.000 : en:The Bomb Shelter
00:35:32.000 : en:Distracted by Julia
00:40:45.000 : en:Day 1: Fear Vs. Restraint
00:47:27.000 : en:The Bond Can Wait
00:53:18.000 : en:Compairing Notes...
00:54:18.000 : en:Late-Night Message
00:55:46.000 : en:Day 2: a Substitute
00:57:50.000 : en:Bad Judment
01:00:54.000 : en:The Odor of Suits
01:02:54.000 : en:Compiled Misjudgments
01:07:50.000 : en:Past Lives Pavilion
01:11:12.000 : en:Miniature Golf And...
01:15:35.000 : en:Day 3: Speechless
01:17:39.000 : en:Snowmobile Snafu
01:21:28.000 : en:A Glimpse of Julia's Life
01:23:37.000 : en:Italian Food and Guilt
01:30:54.000 : en:Declared: Love...
01:32:25.000 : en:Second Thoughts
01:35:36.000 : en:Day 4: Be Nice to Me
01:40:48.000 : en:About Last Night
01:42:34.000 : en:The Judgment
01:46:02.000 : en:Brave Enough
01:47:44.000 : en:End Credits



Скачать Защита.Защищая.твою.жизнь.Defending.Your.Life.(Альберт.Брукс).[1991.комедия.мелодрама.WEB-DLRip-AVC].[DVO]+[AVO]+[Оригинал]x2+[Sub].torrent без регистрации
Золото ЗОЛОТАЯ РАЗДАЧА! СКАЧАННОЕ НЕ ЗАСЧИТЫВАЕТСЯ! Золото
Дата: Зарегистрирован   [ Тип: внутренний ] Как тут cкачать?
MAGNET ссылка
MAGNET ссылка


Скачать .torrent

15 KB

Статус: проверено DHT
Скачан: торрент - 128 раз, раздача полностью - 14 раз
Размер: 2,87 GB
Оценка:  - (Голосов: 0)
Поблагодарили: 1
Поделиться ссылкой на эту раздачу с друзьями:
В контактеFacebookОдноклассникиTwitterLivejournalМой МирLiveinternet
 

 
Показать сообщения:    


Вы не можете начинать темы
Вы не можете отвечать на сообщения
Вы не можете редактировать свои сообщения
Вы не можете удалять свои сообщения
Вы не можете голосовать в опросах
Вы не можете прикреплять файлы к сообщениям
Вы можете скачивать файлы