Loading...
Error

Скачать Трибунал Билли Митчелла / The Court-Martial of Billy Mitchell (Отто Премингер) [1955, драма, военный, биография, BDRip] [AVO(Антон Алексеев)] торрент без регистрации

 
Статистика раздачи
Размер:  1,34 GB   |    Скачан:  104 раза
Сидов:  1  [  0 KB/s  ]  
 
Автор Сообщение

Marsianka

[] 

Название: Трибунал Билли Митчелла
Оригинальное название: The Court-Martial of Billy Mitchell
Год выпуска: 1955
Жанр: драма, военный, биография
Выпущено: США, United States Pictures
Режиссер: Отто Премингер
В ролях: Гэри Купер, Йен Вульф, Арт Гилмор, Питер Грэйвз, Джеймс Дэйли, Дейтон Ламмис, Эдна Холлэнд, Чарльз Чаплин мл., Уильям Генри, Стивен Робертс, Ларс Хансен, Маршалл Брэдфорд, Элизабет Монтгомери, Чарльз Бикфорд, Джек Эллис, Уильям Форрест, Грифф Барнетт, Род Стайгер, Абдулла Аббас, Роберт Ф. Саймон, Том МакКи, Херберт Хэйс, Фил Арнольд, Чарльз Энтони Хьюз, Уилл Райт, Стив Холлэнд, Марио Чимино, Норман Филд, Уильям Фокс, Джо Хаворт, Фред Кларк, Джек Лорд, Чарлз Дингл, Питер Адамс, Ральф Беллами, Роберт Брубэйкер, Роберт Байс, Стюарт Холмс, Дэн Даулинг, Дэррен МакГэвин

О фильме: 1920-е годы. Генерал Билли Митчелл упорно борется за признание и развитие роли авиации в американской армии.



Качество: BDRip
Видео: XviD, 1574 Кбит/с, 720x288
Аудио: Русский (AC3, 1 ch, 192 Кбит/с), английский (AC3, 1 ch, 128 Кбит/с)
Размер: 1.34 ГБ
Продолжительность: 01:40:45
Перевод: Авторский (Антон Алексеев)

Исходник: Мастер5 (Кинозал)

Сравнение с исходником
Общее
Полное имя : D:VideoTribunal Billi Mitchella.1955.XviD.BDRip.avi
Формат : AVI
Формат/Информация : Audio Video Interleave
Размер файла : 1,34 Гбайт
Продолжительность : 1 ч. 40 м.
Общий поток : 1908 Кбит/сек
Программа кодирования : VirtualDubMod 1.5.10.2 (build 2540/release)
Библиотека кодирования : VirtualDubMod build 2540/release

Видео
Идентификатор : 0
Формат : MPEG-4 Visual
Профиль формата : Advanced Simple@L5
Параметр BVOP формата : 1
Параметр QPel формата : Нет
Параметр GMC формата : Без точки перехода
Параметр матрицы формата : Default (H.263)
Режим смешивания : Сжатый битовый поток
Идентификатор кодека : XVID
Идентификатор кодека/Подсказка : XviD
Продолжительность : 1 ч. 40 м.
Битрейт : 1574 Кбит/сек
Ширина : 720 пикселей
Высота : 288 пикселей
Соотношение сторон : 2,500
Частота кадров : 23,976 кадра/сек
Цветовое пространство : YUV
Субдискретизация насыщенности : 4:2:0
Битовая глубина : 8 бит
Тип развёртки : Прогрессивная
Метод сжатия : С потерями
Бит/(Пиксели*Кадры) : 0.317
Размер потока : 1,11 Гбайт (82%)
Библиотека кодирования : XviD 1.2.1 (UTC 2008-12-04)

Аудио #1
Идентификатор : 1
Формат : AC-3
Формат/Информация : Audio Coding 3
Расширение режима : CM (complete main)
Параметр Endianness формата : Big
Идентификатор кодека : 2000
Продолжительность : 1 ч. 40 м.
Вид битрейта : Постоянный
Битрейт : 192 Кбит/сек
Каналы : 1 канал
Расположение каналов : Front: C
Частота : 48,0 КГц
Битовая глубина : 16 бит
Метод сжатия : С потерями
Размер потока : 138 Мбайт (10%)
Выравнивание : Разделение по промежуткам
Продолжительность промежутка : 42 мс. (1,00 видеокадр)
Время предзагрузки промежутка : 500 мс.

Аудио #2
Идентификатор : 2
Формат : AC-3
Формат/Информация : Audio Coding 3
Расширение режима : CM (complete main)
Параметр Endianness формата : Big
Идентификатор кодека : 2000
Продолжительность : 1 ч. 40 м.
Вид битрейта : Постоянный
Битрейт : 128 Кбит/сек
Каналы : 1 канал
Расположение каналов : Front: C
Частота : 48,0 КГц
Битовая глубина : 16 бит
Метод сжатия : С потерями
Размер потока : 92,2 Мбайт (7%)
Выравнивание : Разделение по промежуткам
Продолжительность промежутка : 42 мс. (1,00 видеокадр)
Время предзагрузки промежутка : 500 мс.



Скачать Трибунал.Билли.Митчелла.The.Court-Martial.of.Billy.Mitchell.(Отто.Премингер).[1955.драма.военный.биография.BDRip].[AVO(Антон.Алексеев)].torrent без регистрации
Золото ЗОЛОТАЯ РАЗДАЧА! СКАЧАННОЕ НЕ ЗАСЧИТЫВАЕТСЯ! Золото
Дата: Зарегистрирован   [ Тип: внутренний ] Как тут cкачать?
MAGNET ссылка
MAGNET ссылка


Скачать .torrent

14 KB

Статус: проверено DHT
Скачан: торрент - 104 раз, раздача полностью - 0 раз
Размер: 1,34 GB
Оценка:  - (Голосов: 0)
Поблагодарили: 0
Поделиться ссылкой на эту раздачу с друзьями:
В контактеFacebookОдноклассникиTwitterLivejournalМой МирLiveinternet
 

 
Показать сообщения:    


Вы не можете начинать темы
Вы не можете отвечать на сообщения
Вы не можете редактировать свои сообщения
Вы не можете удалять свои сообщения
Вы не можете голосовать в опросах
Вы не можете прикреплять файлы к сообщениям
Вы можете скачивать файлы