Loading...
Error

Скачать 19-2 / 19-2 (Сезон 01, серии 01-05 из 10) (Луи Шокетт, Эрик Кануэль, Дэниэл Гру) [2014, Драма, криминал, HDTVRip] [720p] [DVO] (VictoryFilms) торрент без регистрации

 
Статистика раздачи
Размер:  5,23 GB   |    Скачан:  118 раз

Полного источника не было: 30 минут

 
Автор Сообщение

leon030982

[] 

19-2 / 19-2


Год выпуска: 2014
Выпущено: Канада, Echo Media, Sph?re Media Plus
Жанр: Драма, криминал
Продолжительность: 05х ~ 00:45:00
Перевод: Любительский (двухголосый)

Режиссеры: Луи Шокетт, Эрик Кануэль, Дэниэл Гру

В ролях: Адриан Холмс, Джаред Кисо, Дэн Петронижевич, Бенц Антуан, Милен Робик, Конрад Пла, Брюс Рэмсей, Максим Рой, Лоранс Лебёф, Тайлер Хайнс

О фильме:
История о повседневной жизни двух сотрудников Департамента полиции Монреаля, которые поневоле стали напарниками.


СЭМПЛ


Качество: HDTVRip 720p
Формат: MKV
Видео кодек: h.264
Аудио кодек: AC3
Видео: V_MPEG4/ISO/AVC, MPEG-4 AVC, 2935 Кбит/c, 1280x720, 23.976 fps
Аудио: 48.0 KHz, AC3, 2 ch, 224 Кбит/с
General
Unique ID : 337302988240506242496878677651477135811 (0xFDC2314A31CCA4E8785F3680A75E81C3)
Complete name : E:\INTERNET\19-2\19-2-s01-e01 -VktoryFilms.mkv
Format : Matroska
File size : 1 009 MiB
Duration : 44mn 36s
Overall bit rate : 3 162 Kbps
Encoded date : UTC 2014-04-04 04:39:54
Writing application : Lavf54.63.104
Writing library : Lavf54.63.104

Video
ID : 1
Format : AVC
Format/Info : Advanced Video Codec
Format profile : High@L3.1
Format settings, CABAC : Yes
Format settings, ReFrames : 2 frames
Codec ID : V_MPEG4/ISO/AVC
Duration : 44mn 36s
Bit rate : 2 935 Kbps
Width : 1 280 pixels
Height : 720 pixels
Display aspect ratio : 16:9
Frame rate mode : Variable
Frame rate : 23.976 fps
Color space : YUV
Chroma subsampling : 4:2:0
Bit depth : 8 bits
Scan type : Progressive
Bits/(Pixel*Frame) : 0.133
Stream size : 917 MiB (91%)
Writing library : x264 core 129
Encoding settings : cabac=1 / ref=2 / deblock=1:0:0 / analyse=0x3:0x113 / me=hex / subme=6 / psy=1 / psy_rd=1.00:0.00 / mixed_ref=1 / me_range=16 / chroma_me=1 / trellis=0 / 8x8dct=1 / cqm=0 / deadzone=21,11 / fast_pskip=1 / chroma_qp_offset=-2 / threads=8 / lookahead_threads=1 / sliced_threads=0 / nr=0 / decimate=1 / interlaced=0 / bluray_compat=0 / constrained_intra=0 / bframes=0 / weightp=2 / keyint=250 / keyint_min=25 / scenecut=40 / intra_refresh=0 / rc_lookahead=40 / rc=2pass / mbtree=1 / bitrate=2935 / ratetol=1.0 / qcomp=0.60 / qpmin=10 / qpmax=51 / qpstep=4 / cplxblur=20.0 / qblur=0.5 / ip_ratio=1.41 / aq=1:1.00
Language : English

Audio
ID : 2
Format : AC-3
Format/Info : Audio Coding 3
Mode extension : CM (complete main)
Codec ID : A_AC3
Duration : 44mn 36s
Bit rate mode : Constant
Bit rate : 224 Kbps
Channel(s) : 2 channels
Channel positions : Front: L R
Sampling rate : 48.0 KHz
Bit depth : 16 bits
Compression mode : Lossy
Stream size : 71.5 MiB (7%)
Language : English
Раздача ведётся путём добавления новых серий; при каждом добавлении создаётся новый торрент. Чтобы начать докачку новой серии, пользователям необходимо сделать следующее:
(1) остановить скачивание,
(2) удалить старый торрент у себя из клиента (старые серии удалять не надо),
(3) скачать новый торрент и запустить его у себя в клиенте вместо старого, при этом указать клиенту путь в старую папку куда и должно происходить скачивание новых серий.

Ваш клиент при этом должен произвести хеширование (проверку) старой папки (если не производит сам - помогите ему сделать это), и будет докачивать только те серии которых у вас ещё нет. Старые серии при этом не удаляются, а продолжают раздаваться!

Eсли вы уже удалили старые серии, то предотвратить повторную закачку старых серий можно, отжав галочку в соответствующих местах при запуске нового торрента. По возможности, желательно не удалять старые серии как можно дольше чтобы релизёр не столько продолжал раздавать старые серии, а смог сконцентрироваться на новых.




Скачать 19-2.19-2.(Сезон.01.серии.01-05.из.10).(Луи.Шокетт.Эрик.Кануэль.Дэниэл.Гру).[2014.Драма.криминал.HDTVRip].[720p].[DVO].(VictoryFilms).torrent без регистрации
Золото ЗОЛОТАЯ РАЗДАЧА! СКАЧАННОЕ НЕ ЗАСЧИТЫВАЕТСЯ! Золото
Дата: Зарегистрирован   [ Тип: внутренний ] Как тут cкачать?
MAGNET ссылка
MAGNET ссылка


Скачать .torrent

14 KB

Статус: проверено DHT
Скачан: торрент - 118 раз, раздача полностью - 0 раз
Размер: 5,23 GB
Оценка:  - (Голосов: 0)
Поблагодарили: 2
Поделиться ссылкой на эту раздачу с друзьями:
В контактеFacebookОдноклассникиTwitterLivejournalМой МирLiveinternet
 

 

leon030982

[] 

Добавлены 3-5-я серии!
 
Показать сообщения:    


Вы не можете начинать темы
Вы не можете отвечать на сообщения
Вы не можете редактировать свои сообщения
Вы не можете удалять свои сообщения
Вы не можете голосовать в опросах
Вы не можете прикреплять файлы к сообщениям
Вы можете скачивать файлы